  0
SECTION
  2
HEADER
  9
$ACADVER
  1
AC1014
  9
$ACADMAINTVER
 70
     0
  9
$DWGCODEPAGE
  3
ANSI_1252
  9
$INSBASE
 10
93.894301
 20
236.06014
 30
0.0
  9
$EXTMIN
 10
0.136489
 20
-7.790697
 30
0.0
  9
$EXTMAX
 10
260.136781
 20
37.072229
 30
0.0
  9
$LIMMIN
 10
0.0
 20
0.0
  9
$LIMMAX
 10
210.0
 20
297.0
  9
$ORTHOMODE
 70
     0
  9
$REGENMODE
 70
     1
  9
$FILLMODE
 70
     1
  9
$QTEXTMODE
 70
     0
  9
$MIRRTEXT
 70
     0
  9
$DRAGMODE
 70
     1
  9
$LTSCALE
 40
7.0
  9
$OSMODE
 70
  4095
  9
$ATTMODE
 70
     1
  9
$TEXTSIZE
 40
2.5
  9
$TRACEWID
 40
0.05
  9
$TEXTSTYLE
  7
STANDARD
  9
$CLAYER
  8
COTATION1
  9
$CELTYPE
  6
BYLAYER
  9
$CECOLOR
 62
   256
  9
$CELTSCALE
 40
1.0
  9
$DELOBJ
 70
     1
  9
$DISPSILH
 70
     0
  9
$DIMSCALE
 40
1.0
  9
$DIMASZ
 40
3.0
  9
$DIMEXO
 40
0.0625
  9
$DIMDLI
 40
0.38
  9
$DIMRND
 40
0.01
  9
$DIMDLE
 40
0.0
  9
$DIMEXE
 40
0.18
  9
$DIMTP
 40
0.0
  9
$DIMTM
 40
0.0
  9
$DIMTXT
 40
2.5
  9
$DIMCEN
 40
0.09
  9
$DIMTSZ
 40
0.0
  9
$DIMTOL
 70
     0
  9
$DIMLIM
 70
     0
  9
$DIMTIH
 70
     0
  9
$DIMTOH
 70
     0
  9
$DIMSE1
 70
     0
  9
$DIMSE2
 70
     0
  9
$DIMTAD
 70
     1
  9
$DIMZIN
 70
    12
  9
$DIMBLK
  1

  9
$DIMASO
 70
     1
  9
$DIMSHO
 70
     0
  9
$DIMPOST
  1

  9
$DIMAPOST
  1

  9
$DIMALT
 70
     0
  9
$DIMALTD
 70
     2
  9
$DIMALTF
 40
25.4
  9
$DIMLFAC
 40
1.0
  9
$DIMTOFL
 70
     1
  9
$DIMTVP
 40
0.0
  9
$DIMTIX
 70
     0
  9
$DIMSOXD
 70
     0
  9
$DIMSAH
 70
     0
  9
$DIMBLK1
  1

  9
$DIMBLK2
  1

  9
$DIMSTYLE
  2
SC_STAND
  9
$DIMCLRD
 70
     0
  9
$DIMCLRE
 70
     0
  9
$DIMCLRT
 70
     0
  9
$DIMTFAC
 40
1.0
  9
$DIMGAP
 40
1.0
  9
$DIMJUST
 70
     0
  9
$DIMSD1
 70
     0
  9
$DIMSD2
 70
     0
  9
$DIMTOLJ
 70
     1
  9
$DIMTZIN
 70
    12
  9
$DIMALTZ
 70
    12
  9
$DIMALTTZ
 70
    12
  9
$DIMFIT
 70
     5
  9
$DIMUPT
 70
     0
  9
$DIMUNIT
 70
     2
  9
$DIMDEC
 70
     3
  9
$DIMTDEC
 70
     3
  9
$DIMALTU
 70
     2
  9
$DIMALTTD
 70
     2
  9
$DIMTXSTY
  7
STANDARD
  9
$DIMAUNIT
 70
     0
  9
$LUNITS
 70
     2
  9
$LUPREC
 70
     3
  9
$SKETCHINC
 40
0.1
  9
$FILLETRAD
 40
0.0625
  9
$AUNITS
 70
     0
  9
$AUPREC
 70
     0
  9
$MENU
  1
ACAD
  9
$ELEVATION
 40
0.0
  9
$PELEVATION
 40
0.0
  9
$THICKNESS
 40
0.0
  9
$LIMCHECK
 70
     0
  9
$BLIPMODE
 70
     1
  9
$CHAMFERA
 40
0.0
  9
$CHAMFERB
 40
0.0
  9
$CHAMFERC
 40
0.0
  9
$CHAMFERD
 40
0.0
  9
$SKPOLY
 70
     0
  9
$TDCREATE
 40
2450953.590960648
  9
$TDUPDATE
 40
2453950.720647627
  9
$TDINDWG
 40
0.0046076620
  9
$TDUSRTIMER
 40
0.0046076620
  9
$USRTIMER
 70
     1
  9
$ANGBASE
 50
0.0
  9
$ANGDIR
 70
     0
  9
$PDMODE
 70
     0
  9
$PDSIZE
 40
0.0
  9
$PLINEWID
 40
0.0
  9
$COORDS
 70
     0
  9
$SPLFRAME
 70
     0
  9
$SPLINETYPE
 70
     6
  9
$SPLINESEGS
 70
     8
  9
$ATTDIA
 70
     0
  9
$ATTREQ
 70
     1
  9
$HANDLING
 70
     1
  9
$HANDSEED
  5
148C
  9
$SURFTAB1
 70
     6
  9
$SURFTAB2
 70
     6
  9
$SURFTYPE
 70
     6
  9
$SURFU
 70
     6
  9
$SURFV
 70
     6
  9
$UCSNAME
  2

  9
$UCSORG
 10
0.0
 20
0.0
 30
0.0
  9
$UCSXDIR
 10
1.0
 20
0.0
 30
0.0
  9
$UCSYDIR
 10
0.0
 20
1.0
 30
0.0
  9
$PUCSNAME
  2

  9
$PUCSORG
 10
0.0
 20
0.0
 30
0.0
  9
$PUCSXDIR
 10
1.0
 20
0.0
 30
0.0
  9
$PUCSYDIR
 10
0.0
 20
1.0
 30
0.0
  9
$USERI1
 70
     0
  9
$USERI2
 70
     0
  9
$USERI3
 70
     0
  9
$USERI4
 70
     0
  9
$USERI5
 70
     0
  9
$USERR1
 40
0.0
  9
$USERR2
 40
0.0
  9
$USERR3
 40
0.0
  9
$USERR4
 40
0.0
  9
$USERR5
 40
0.0
  9
$WORLDVIEW
 70
     1
  9
$SHADEDGE
 70
     3
  9
$SHADEDIF
 70
    70
  9
$TILEMODE
 70
     1
  9
$MAXACTVP
 70
    32
  9
$PINSBASE
 10
0.0
 20
0.0
 30
0.0
  9
$PLIMCHECK
 70
     0
  9
$PEXTMIN
 10
-3.174999
 20
-3.175
 30
0.0
  9
$PEXTMAX
 10
203.812116
 20
370.276807
 30
0.0
  9
$PLIMMIN
 10
-3.175
 20
-3.175
  9
$PLIMMAX
 10
203.812115
 20
370.276807
  9
$UNITMODE
 70
     0
  9
$VISRETAIN
 70
     0
  9
$PLINEGEN
 70
     0
  9
$PSLTSCALE
 70
     1
  9
$TREEDEPTH
 70
  3020
  9
$PICKSTYLE
 70
     1
  9
$CMLSTYLE
  2
STANDARD
  9
$CMLJUST
 70
     0
  9
$CMLSCALE
 40
1.0
  9
$PROXYGRAPHICS
 70
     1
  9
$MEASUREMENT
 70
     0
  0
ENDSEC
  0
SECTION
  2
CLASSES
  0
CLASS
  1
DICTIONARYVAR
  2
AcDbDictionaryVar
  3
"AutoCAD"
 90
        0
280
     0
281
     0
  0
CLASS
  1
HATCH
  2
AcDbHatch
  3
"ACAD_SEDONA"
 90
        0
280
     0
281
     1
  0
ENDSEC
  0
SECTION
  2
TABLES
  0
TABLE
  2
VPORT
  5
F4
100
AcDbSymbolTable
 70
     2
  0
VPORT
  5
148B
100
AcDbSymbolTableRecord
100
AcDbViewportTableRecord
  2
*ACTIVE
 70
     0
 10
0.0
 20
0.0
 11
1.0
 21
1.0
 12
130.137855
 22
14.631814
 13
0.0
 23
0.0
 14
1.0
 24
1.0
 15
10.0
 25
10.0
 16
0.0
 26
0.0
 36
1.0
 17
0.0
 27
0.0
 37
0.0
 40
132.999713
 41
1.966667
 42
50.0
 43
0.0
 44
0.0
 50
0.0
 51
0.0
 71
     0
 72
   100
 73
     1
 74
     1
 75
     0
 76
     1
 77
     0
 78
     0
  0
ENDTAB
  0
TABLE
  2
LTYPE
  5
F1
100
AcDbSymbolTable
 70
     5
  0
LTYPE
  5
FD
100
AcDbSymbolTableRecord
100
AcDbLinetypeTableRecord
  2
BYBLOCK
 70
     0
  3

 72
    65
 73
     0
 40
0.0
  0
LTYPE
  5
FE
100
AcDbSymbolTableRecord
100
AcDbLinetypeTableRecord
  2
BYLAYER
 70
     0
  3

 72
    65
 73
     0
 40
0.0
  0
LTYPE
  5
FF
100
AcDbSymbolTableRecord
100
AcDbLinetypeTableRecord
  2
CONTINUOUS
 70
     0
  3
Solid line
 72
    65
 73
     0
 40
0.0
  0
LTYPE
  5
112
100
AcDbSymbolTableRecord
100
AcDbLinetypeTableRecord
  2
AXES2
 70
     0
  3
___ _ ___ _ ___ _ ___ _ ___ _ ___ _ ___ _ ___ _
 72
    65
 73
     4
 40
1.125
 49
0.75
 74
     0
 49
-0.125
 74
     0
 49
0.125
 74
     0
 49
-0.125
 74
     0
  0
ENDTAB
  0
TABLE
  2
LAYER
  5
EE
100
AcDbSymbolTable
 70
     6
  0
LAYER
  5
FA
100
AcDbSymbolTableRecord
100
AcDbLayerTableRecord
  2
0
 70
     0
 62
     7
  6
CONTINUOUS
  0
LAYER
  5
12C
100
AcDbSymbolTableRecord
100
AcDbLayerTableRecord
  2
ALPHA
 70
     0
 62
   255
  6
CONTINUOUS
  0
LAYER
  5
12D
100
AcDbSymbolTableRecord
100
AcDbLayerTableRecord
  2
AXE
 70
     0
 62
    80
  6
AXES2
  0
LAYER
  5
12F
100
AcDbSymbolTableRecord
100
AcDbLayerTableRecord
  2
COTATION1
 70
     0
 62
     2
  6
CONTINUOUS
  0
LAYER
  5
13B
100
AcDbSymbolTableRecord
100
AcDbLayerTableRecord
  2
ASHADE
 70
     0
 62
     7
  6
CONTINUOUS
  0
LAYER
  5
13E
100
AcDbSymbolTableRecord
100
AcDbLayerTableRecord
  2
DEFPOINTS
 70
     0
 62
     7
  6
CONTINUOUS
  0
ENDTAB
  0
TABLE
  2
STYLE
  5
EF
100
AcDbSymbolTable
 70
     2
  0
STYLE
  5
FB
100
AcDbSymbolTableRecord
100
AcDbTextStyleTableRecord
  2
STANDARD
 70
     0
 40
0.0
 41
1.0
 50
0.0
 71
     0
 42
2.5
  3
txt
  4

  0
ENDTAB
  0
TABLE
  2
VIEW
  5
F2
100
AcDbSymbolTable
 70
     0
  0
ENDTAB
  0
TABLE
  2
UCS
  5
F3
100
AcDbSymbolTable
 70
     0
  0
ENDTAB
  0
TABLE
  2
APPID
  5
F5
100
AcDbSymbolTable
 70
     3
  0
APPID
  5
FC
100
AcDbSymbolTableRecord
100
AcDbRegAppTableRecord
  2
ACAD
 70
     0
  0
APPID
  5
127
100
AcDbSymbolTableRecord
100
AcDbRegAppTableRecord
  2
AVE_RENDER
 70
     0
  0
APPID
  5
128
100
AcDbSymbolTableRecord
100
AcDbRegAppTableRecord
  2
AVE_MATERIAL
 70
     0
  0
ENDTAB
  0
TABLE
  2
DIMSTYLE
  5
F6
100
AcDbSymbolTable
 70
     2
  0
DIMSTYLE
105
129
100
AcDbSymbolTableRecord
100
AcDbDimStyleTableRecord
  2
STANDARD
 70
     0
  3

  4

  5

  6

  7

 40
1.0
 41
0.18
 42
0.0625
 43
0.38
 44
0.18
 45
0.0
 46
0.0
 47
0.0
 48
0.0
140
0.18
141
0.09
142
0.0
143
25.4
144
1.0
145
0.0
146
1.0
147
0.09
 71
     0
 72
     0
 73
     1
 74
     1
 75
     0
 76
     0
 77
     0
 78
     0
170
     0
171
     2
172
     0
173
     0
174
     0
175
     0
176
     0
177
     0
178
     0
270
     2
271
     3
272
     3
273
     2
274
     2
340
FB
275
     0
280
     0
281
     0
282
     0
283
     1
284
    12
285
    12
286
    12
287
     5
288
     0
  0
DIMSTYLE
105
12A
102
{ACAD_REACTORS
330
1430
330
143D
330
144A
330
1457
330
1485
102
}
100
AcDbSymbolTableRecord
100
AcDbDimStyleTableRecord
  2
SC_STAND
 70
     0
  3

  4

  5

  6

  7

 40
1.0
 41
3.0
 42
0.0625
 43
0.38
 44
0.18
 45
0.01
 46
0.0
 47
0.0
 48
0.0
140
2.5
141
0.09
142
0.0
143
25.4
144
1.0
145
0.0
146
1.0
147
1.0
 71
     0
 72
     0
 73
     0
 74
     0
 75
     0
 76
     0
 77
     1
 78
    12
170
     0
171
     2
172
     1
173
     0
174
     0
175
     0
176
     0
177
     0
178
     0
270
     2
271
     3
272
     3
273
     2
274
     2
340
FB
275
     0
280
     0
281
     0
282
     0
283
     1
284
    12
285
    12
286
    12
287
     5
288
     0
  0
ENDTAB
  0
TABLE
  2
BLOCK_RECORD
  5
ED
100
AcDbSymbolTable
 70
    12
  0
BLOCK_RECORD
  5
103
100
AcDbSymbolTableRecord
100
AcDbBlockTableRecord
  2
*MODEL_SPACE
  0
BLOCK_RECORD
  5
100
100
AcDbSymbolTableRecord
100
AcDbBlockTableRecord
  2
*PAPER_SPACE
  0
BLOCK_RECORD
  5
108
100
AcDbSymbolTableRecord
100
AcDbBlockTableRecord
  2
AVE_RENDER
  0
BLOCK_RECORD
  5
109
100
AcDbSymbolTableRecord
100
AcDbBlockTableRecord
  2
AVE_GLOBAL
  0
BLOCK_RECORD
  5
10A
100
AcDbSymbolTableRecord
100
AcDbBlockTableRecord
  2
SCH_IS
  0
BLOCK_RECORD
  5
1424
100
AcDbSymbolTableRecord
100
AcDbBlockTableRecord
  2
*D7
  0
BLOCK_RECORD
  5
1431
100
AcDbSymbolTableRecord
100
AcDbBlockTableRecord
  2
*D8
  0
BLOCK_RECORD
  5
143E
100
AcDbSymbolTableRecord
100
AcDbBlockTableRecord
  2
*D9
  0
BLOCK_RECORD
  5
144B
100
AcDbSymbolTableRecord
100
AcDbBlockTableRecord
  2
*D10
  0
BLOCK_RECORD
  5
1479
100
AcDbSymbolTableRecord
100
AcDbBlockTableRecord
  2
*D11
  0
ENDTAB
  0
ENDSEC
  0
SECTION
  2
BLOCKS
  0
BLOCK
  5
141
100
AcDbEntity
  8
0
100
AcDbBlockBegin
  2
*MODEL_SPACE
 70
     0
 10
0.0
 20
0.0
 30
0.0
  3
*MODEL_SPACE
  1

  0
ENDBLK
  5
142
100
AcDbEntity
  8
0
100
AcDbBlockEnd
  0
BLOCK
  5
13F
100
AcDbEntity
 67
     1
  8
0
100
AcDbBlockBegin
  2
*PAPER_SPACE
 70
     0
 10
0.0
 20
0.0
 30
0.0
  3
*PAPER_SPACE
  1

  0
ENDBLK
  5
140
100
AcDbEntity
 67
     1
  8
0
100
AcDbBlockEnd
  0
BLOCK
  5
8D
100
AcDbEntity
  8
0
100
AcDbBlockBegin
  2
AVE_RENDER
 70
     0
 10
0.0
 20
0.0
 30
0.0
  3
AVE_RENDER
  1
AVE_RENDER
  0
ENDBLK
  5
8E
100
AcDbEntity
  8
0
100
AcDbBlockEnd
  0
BLOCK
  5
90
100
AcDbEntity
  8
0
100
AcDbBlockBegin
  2
AVE_GLOBAL
 70
     0
 10
0.0
 20
0.0
 30
0.0
  3
AVE_GLOBAL
  1
AVE_GLOBAL
  0
ENDBLK
  5
91
100
AcDbEntity
  8
0
100
AcDbBlockEnd
  0
BLOCK
  5
C9
100
AcDbEntity
  8
0
100
AcDbBlockBegin
  2
SCH_IS
 70
     0
 10
0.0
 20
0.0
 30
0.0
  3
SCH_IS
  1

  0
INSERT
  5
C0
100
AcDbEntity
  8
ASHADE
 62
     1
100
AcDbBlockReference
  2
AVE_RENDER
 10
0.0
 20
0.0
 30
0.0
1001
AVE_RENDER
1002
{
1070
     6
1000
Pref
1070
    50
1070
    20
1070
     1
1070
     0
1000

1070
    10
1070
     1
1070
    30
1040
25.4
1070
     1
1040
0.3
1040
0.7
1040
0.0
1040
10.0
1010
-1.0
1020
-1.0
1030
-1.0
1040
0.3
1070
    49
1070
     0
1070
     0
1010
1.0
1020
1.0
1030
1.0
1040
45.0
1070
     1
1070
     0
1000
WCS
1040
0.0
1002
}
  0
INSERT
  5
C1
100
AcDbEntity
  8
ASHADE
 62
     3
100
AcDbBlockReference
  2
AVE_RENDER
 10
0.0
 20
0.0
 30
0.0
1001
AVE_RENDER
1002
{
1070
     0
1000
Full Opt
1070
     0
1070
     1
1070
     1
1070
     1
1070
     0
1070
     0
1070
     0
1070
     1
1070
     1
1040
0.0001
1040
0.0001
1002
}
  0
INSERT
  5
C2
100
AcDbEntity
  8
ASHADE
 62
     4
100
AcDbBlockReference
  2
AVE_RENDER
 10
0.0
 20
0.0
 30
0.0
1001
AVE_RENDER
1002
{
1070
     0
1000
Quick Opt
1070
     0
1070
     1
1070
     1
1070
     1
1070
     0
1070
     0
1070
     1
1002
}
  0
INSERT
  5
C3
100
AcDbEntity
  8
ASHADE
 62
     5
100
AcDbBlockReference
  2
AVE_RENDER
 10
0.0
 20
0.0
 30
0.0
1001
AVE_RENDER
1002
{
1070
     1
1000
Scanl Opt
1070
     2
1070
     0
1070
     2
1040
2.0
1040
4.0
1070
     0
1070
     1
1070
     0
1040
0.03
1002
}
  0
INSERT
  5
C4
100
AcDbEntity
  8
ASHADE
 62
     6
100
AcDbBlockReference
  2
AVE_RENDER
 10
0.0
 20
0.0
 30
0.0
1001
AVE_RENDER
1002
{
1070
     2
1000
Raytr Opt
1070
     2
1070
     0
1070
     2
1040
2.0
1040
4.0
1070
     0
1070
     1
1070
     1
1040
0.03
1070
     3
1040
0.03
1002
}
  0
INSERT
  5
C5
100
AcDbEntity
  8
ASHADE
 62
     7
100
AcDbBlockReference
  2
AVE_RENDER
 10
0.0
 20
0.0
 30
0.0
1001
AVE_RENDER
1002
{
1070
     0
1000
RFile Opt
1070
     5
1070
   640
1070
   480
1070
 10000
1070
     3
1070
    32
1070
    24
1070
     0
1070
     0
1070
     0
1070
     1
1070
     0
1070
     0
1070
     0
1002
}
  0
INSERT
  5
C6
100
AcDbEntity
  8
ASHADE
 62
     8
100
AcDbBlockReference
  2
AVE_RENDER
 10
0.0
 20
0.0
 30
0.0
1001
AVE_RENDER
1002
{
1070
     0
1000
Fog Opt
1070
     0
1070
     0
1040
0.0
1040
1.0
1040
0.0
1040
1.0
1010
0.5
1020
0.5
1030
0.5
1002
}
  0
INSERT
  5
C7
100
AcDbEntity
  8
ASHADE
 62
     9
100
AcDbBlockReference
  2
AVE_RENDER
 10
0.0
 20
0.0
 30
0.0
1001
AVE_RENDER
1002
{
1070
     0
1000
BG Opt
1070
     0
1070
     1
1010
0.0
1020
0.0
1030
0.0
1010
1.0
1020
0.0
1030
0.0
1010
0.0
1020
1.0
1030
0.0
1010
0.0
1020
0.0
1030
1.0
1040
0.5
1040
0.33
1040
0.0
1000

1070
     1
1000

1070
     1
1070
     1
1040
1.0
1040
1.0
1040
0.0
1040
0.0
1070
     0
1002
}
  0
INSERT
  5
C8
100
AcDbEntity
  8
ASHADE
 62
     1
100
AcDbBlockReference
  2
AVE_GLOBAL
 10
0.0
 20
0.0
 30
0.0
1001
AVE_MATERIAL
1002
{
1000
*GLOBAL*
1000
1
1000
Finition globale.
1002
{
1002
}
1002
{
1070
    63
1002
{
1002
{
1010
-1.0
1020
-1.0
1030
-1.0
1002
}
1040
0.1
1000

1040
0.0
1002
{
1002
}
1040
0.0
1002
{
1002
}
1040
0.0
1002
}
1002
{
1002
{
1010
-1.0
1020
-1.0
1030
-1.0
1002
}
1040
0.7
1000

1040
0.0
1002
{
1002
}
1040
0.0
1002
{
1002
}
1040
0.0
1002
}
1002
{
1002
{
1010
-1.0
1020
-1.0
1030
-1.0
1002
}
1040
0.2
1000

1040
0.0
1002
{
1002
}
1040
0.0
1002
{
1002
}
1040
0.0
1002
}
1002
{
1070
     0
1002
{
1070
     1
1002
{
1040
1.0
1040
1.0
1000

1040
0.0
1002
{
1002
}
1040
0.0
1002
{
1002
}
1040
0.0
1002
}
1002
}
1040
1.0
1040
0.0
1040
0.0
1002
}
1002
{
1040
1.0
1040
1.0
1000

1040
0.0
1002
{
1002
}
1040
0.0
1002
{
1002
}
1040
0.0
1002
}
1002
{
1040
0.5
1040
1.0
1000

1040
0.0
1002
{
1002
}
1040
0.0
1002
{
1002
}
1040
0.0
1002
}
1002
{
1070
     0
1040
0.0
1002
{
1002
}
1040
1.0
1002
{
1002
}
1040
0.0
1002
}
1002
{
1040
0.0
1002
{
1002
{
1010
0.0
1020
0.0
1030
0.0
1002
}
1040
1.0
1000

1040
0.0
1002
{
1002
}
1040
0.0
1002
{
1002
}
1040
0.0
1002
}
1002
}
1002
{
1002
{
1070
     1
1002
{
1040
0.0
1040
1.0
1000

1040
0.0
1002
{
1002
}
1040
0.0
1002
{
1002
}
1040
0.0
1002
}
1002
}
1040
0.0
1002
{
1002
}
1010
1.0
1020
0.0
1030
0.0
1010
0.0
1020
1.0
1030
0.0
1010
0.0
1020
0.0
1030
1.0
1070
     0
1002
}
1002
{
1002
{
1040
1.0
1040
1.0
1002
{
1070
     1
1002
{
1040
1.0
1040
1.0
1000

1040
0.0
1002
{
1002
}
1040
0.0
1002
{
1002
}
1040
0.0
1002
}
1002
}
1002
}
1070
     0
1040
0.0
1002
{
1002
}
1002
}
1002
{
1002
}
1002
}
1002
{
1071
        3
1070
     3
1070
     0
1002
{
1070
     2
1070
     0
1070
     0
1040
0.0
1002
}
1070
     0
1070
     2
1002
{
1002
}
1002
}
1002
{
1040
8030.0
1040
190.300003
1040
0.305
1040
228.0
1040
545.0
1040
14.0
1040
17.4
1040
0.456
1002
}
1002
}
  0
ENDBLK
  5
CA
100
AcDbEntity
  8
0
100
AcDbBlockEnd
  0
BLOCK
  5
1425
100
AcDbEntity
  8
0
100
AcDbBlockBegin
  2
*D7
 70
     1
 10
0.0
 20
0.0
 30
0.0
  3
*D7
  1

  0
LINE
  5
1426
100
AcDbEntity
  8
0
  6
BYBLOCK
 62
     0
100
AcDbLine
 10
22.123435
 20
-2.450057
 30
0.0
 11
22.123435
 21
-7.470697
 31
0.0
  0
LINE
  5
1427
100
AcDbEntity
  8
0
  6
BYBLOCK
 62
     0
100
AcDbLine
 10
76.123235
 20
-2.450057
 30
0.0
 11
76.123235
 21
-7.470697
 31
0.0
  0
LINE
  5
1428
100
AcDbEntity
  8
0
  6
BYBLOCK
 62
     0
100
AcDbLine
 10
25.123435
 20
-7.290697
 30
0.0
 11
73.123235
 21
-7.290697
 31
0.0
  0
SOLID
  5
1429
100
AcDbEntity
  8
0
  6
BYBLOCK
 62
     0
100
AcDbTrace
 10
25.123435
 20
-6.790697
 30
0.0
 11
25.123435
 21
-7.790697
 31
0.0
 12
22.123435
 22
-7.290697
 32
0.0
 13
22.123435
 23
-7.290697
 33
0.0
  0
SOLID
  5
142A
100
AcDbEntity
  8
0
  6
BYBLOCK
 62
     0
100
AcDbTrace
 10
73.123235
 20
-6.790697
 30
0.0
 11
73.123235
 21
-7.790697
 31
0.0
 12
76.123235
 22
-7.290697
 32
0.0
 13
76.123235
 23
-7.290697
 33
0.0
  0
MTEXT
  5
142B
100
AcDbEntity
  8
0
  6
BYBLOCK
 62
     0
100
AcDbMText
 10
49.123335
 20
-5.040697
 30
0.0
 40
2.5
 41
0.0
 71
     5
 72
     1
  1
\A1;54
  0
POINT
  5
142C
100
AcDbEntity
  8
DEFPOINTS
  6
BYBLOCK
 62
     0
100
AcDbPoint
 10
22.123435
 20
-2.387557
 30
0.0
  0
POINT
  5
142D
100
AcDbEntity
  8
DEFPOINTS
  6
BYBLOCK
 62
     0
100
AcDbPoint
 10
76.123235
 20
-2.387557
 30
0.0
  0
POINT
  5
142E
100
AcDbEntity
  8
DEFPOINTS
  6
BYBLOCK
 62
     0
100
AcDbPoint
 10
76.123235
 20
-7.290697
 30
0.0
  0
ENDBLK
  5
142F
100
AcDbEntity
  8
0
100
AcDbBlockEnd
  0
BLOCK
  5
1458
100
AcDbEntity
  8
0
100
AcDbBlockBegin
  2
*D8
 70
     1
 10
0.0
 20
0.0
 30
0.0
  3
*D8
  1

  0
LINE
  5
1459
100
AcDbEntity
  8
0
  6
BYBLOCK
 62
     0
100
AcDbLine
 10
76.123235
 20
-2.512557
 30
0.0
 11
76.123235
 21
-7.470697
 31
0.0
  0
LINE
  5
145A
100
AcDbEntity
  8
0
  6
BYBLOCK
 62
     0
100
AcDbLine
 10
130.123388
 20
-2.512557
 30
0.0
 11
130.123388
 21
-7.470697
 31
0.0
  0
LINE
  5
145B
100
AcDbEntity
  8
0
  6
BYBLOCK
 62
     0
100
AcDbLine
 10
79.123235
 20
-7.290697
 30
0.0
 11
127.123388
 21
-7.290697
 31
0.0
  0
SOLID
  5
145C
100
AcDbEntity
  8
0
  6
BYBLOCK
 62
     0
100
AcDbTrace
 10
79.123235
 20
-6.790697
 30
0.0
 11
79.123235
 21
-7.790697
 31
0.0
 12
76.123235
 22
-7.290697
 32
0.0
 13
76.123235
 23
-7.290697
 33
0.0
  0
SOLID
  5
145D
100
AcDbEntity
  8
0
  6
BYBLOCK
 62
     0
100
AcDbTrace
 10
127.123388
 20
-6.790697
 30
0.0
 11
127.123388
 21
-7.790697
 31
0.0
 12
130.123388
 22
-7.290697
 32
0.0
 13
130.123388
 23
-7.290697
 33
0.0
  0
MTEXT
  5
145E
100
AcDbEntity
  8
0
  6
BYBLOCK
 62
     0
100
AcDbMText
 10
103.123312
 20
-5.040697
 30
0.0
 40
2.5
 41
0.0
 71
     5
 72
     1
  1
\A1;54
  0
POINT
  5
145F
100
AcDbEntity
  8
DEFPOINTS
  6
BYBLOCK
 62
     0
100
AcDbPoint
 10
76.123235
 20
-2.450057
 30
0.0
  0
POINT
  5
1460
100
AcDbEntity
  8
DEFPOINTS
  6
BYBLOCK
 62
     0
100
AcDbPoint
 10
130.123388
 20
-2.450057
 30
0.0
  0
POINT
  5
1461
100
AcDbEntity
  8
DEFPOINTS
  6
BYBLOCK
 62
     0
100
AcDbPoint
 10
130.123388
 20
-7.290697
 30
0.0
  0
ENDBLK
  5
1462
100
AcDbEntity
  8
0
100
AcDbBlockEnd
  0
BLOCK
  5
1463
100
AcDbEntity
  8
0
100
AcDbBlockBegin
  2
*D9
 70
     1
 10
0.0
 20
0.0
 30
0.0
  3
*D9
  1

  0
LINE
  5
1464
100
AcDbEntity
  8
0
  6
BYBLOCK
 62
     0
100
AcDbLine
 10
130.123388
 20
-2.575057
 30
0.0
 11
130.123388
 21
-7.470697
 31
0.0
  0
LINE
  5
1465
100
AcDbEntity
  8
0
  6
BYBLOCK
 62
     0
100
AcDbLine
 10
184.123541
 20
-2.450057
 30
0.0
 11
184.123541
 21
-7.470697
 31
0.0
  0
LINE
  5
1466
100
AcDbEntity
  8
0
  6
BYBLOCK
 62
     0
100
AcDbLine
 10
133.123388
 20
-7.290697
 30
0.0
 11
181.123541
 21
-7.290697
 31
0.0
  0
SOLID
  5
1467
100
AcDbEntity
  8
0
  6
BYBLOCK
 62
     0
100
AcDbTrace
 10
133.123388
 20
-6.790697
 30
0.0
 11
133.123388
 21
-7.790697
 31
0.0
 12
130.123388
 22
-7.290697
 32
0.0
 13
130.123388
 23
-7.290697
 33
0.0
  0
SOLID
  5
1468
100
AcDbEntity
  8
0
  6
BYBLOCK
 62
     0
100
AcDbTrace
 10
181.123541
 20
-6.790697
 30
0.0
 11
181.123541
 21
-7.790697
 31
0.0
 12
184.123541
 22
-7.290697
 32
0.0
 13
184.123541
 23
-7.290697
 33
0.0
  0
MTEXT
  5
1469
100
AcDbEntity
  8
0
  6
BYBLOCK
 62
     0
100
AcDbMText
 10
157.123465
 20
-5.040697
 30
0.0
 40
2.5
 41
0.0
 71
     5
 72
     1
  1
\A1;54
  0
POINT
  5
146A
100
AcDbEntity
  8
DEFPOINTS
  6
BYBLOCK
 62
     0
100
AcDbPoint
 10
130.123388
 20
-2.512557
 30
0.0
  0
POINT
  5
146B
100
AcDbEntity
  8
DEFPOINTS
  6
BYBLOCK
 62
     0
100
AcDbPoint
 10
184.123541
 20
-2.387557
 30
0.0
  0
POINT
  5
146C
100
AcDbEntity
  8
DEFPOINTS
  6
BYBLOCK
 62
     0
100
AcDbPoint
 10
184.123541
 20
-7.290697
 30
0.0
  0
ENDBLK
  5
146D
100
AcDbEntity
  8
0
100
AcDbBlockEnd
  0
BLOCK
  5
146E
100
AcDbEntity
  8
0
100
AcDbBlockBegin
  2
*D10
 70
     1
 10
0.0
 20
0.0
 30
0.0
  3
*D10
  1

  0
LINE
  5
146F
100
AcDbEntity
  8
0
  6
BYBLOCK
 62
     0
100
AcDbLine
 10
184.123541
 20
-2.512557
 30
0.0
 11
184.123541
 21
-7.470697
 31
0.0
  0
LINE
  5
1470
100
AcDbEntity
  8
0
  6
BYBLOCK
 62
     0
100
AcDbLine
 10
238.123694
 20
-2.512557
 30
0.0
 11
238.123694
 21
-7.470697
 31
0.0
  0
LINE
  5
1471
100
AcDbEntity
  8
0
  6
BYBLOCK
 62
     0
100
AcDbLine
 10
187.123541
 20
-7.290697
 30
0.0
 11
235.123694
 21
-7.290697
 31
0.0
  0
SOLID
  5
1472
100
AcDbEntity
  8
0
  6
BYBLOCK
 62
     0
100
AcDbTrace
 10
187.123541
 20
-6.790697
 30
0.0
 11
187.123541
 21
-7.790697
 31
0.0
 12
184.123541
 22
-7.290697
 32
0.0
 13
184.123541
 23
-7.290697
 33
0.0
  0
SOLID
  5
1473
100
AcDbEntity
  8
0
  6
BYBLOCK
 62
     0
100
AcDbTrace
 10
235.123694
 20
-6.790697
 30
0.0
 11
235.123694
 21
-7.790697
 31
0.0
 12
238.123694
 22
-7.290697
 32
0.0
 13
238.123694
 23
-7.290697
 33
0.0
  0
MTEXT
  5
1474
100
AcDbEntity
  8
0
  6
BYBLOCK
 62
     0
100
AcDbMText
 10
211.123618
 20
-5.040697
 30
0.0
 40
2.5
 41
0.0
 71
     5
 72
     1
  1
\A1;54
  0
POINT
  5
1475
100
AcDbEntity
  8
DEFPOINTS
  6
BYBLOCK
 62
     0
100
AcDbPoint
 10
184.123541
 20
-2.450057
 30
0.0
  0
POINT
  5
1476
100
AcDbEntity
  8
DEFPOINTS
  6
BYBLOCK
 62
     0
100
AcDbPoint
 10
238.123694
 20
-2.450057
 30
0.0
  0
POINT
  5
1477
100
AcDbEntity
  8
DEFPOINTS
  6
BYBLOCK
 62
     0
100
AcDbPoint
 10
238.123694
 20
-7.290697
 30
0.0
  0
ENDBLK
  5
1478
100
AcDbEntity
  8
0
100
AcDbBlockEnd
  0
BLOCK
  5
147A
100
AcDbEntity
  8
0
100
AcDbBlockBegin
  2
*D11
 70
     1
 10
0.0
 20
0.0
 30
0.0
  3
*D11
  1

  0
LINE
  5
147B
100
AcDbEntity
  8
0
  6
BYBLOCK
 62
     0
100
AcDbLine
 10
0.136489
 20
25.045707
 30
0.0
 11
0.136489
 21
33.752229
 31
0.0
  0
LINE
  5
147C
100
AcDbEntity
  8
0
  6
BYBLOCK
 62
     0
100
AcDbLine
 10
260.136781
 20
25.045707
 30
0.0
 11
260.136781
 21
33.752229
 31
0.0
  0
LINE
  5
147D
100
AcDbEntity
  8
0
  6
BYBLOCK
 62
     0
100
AcDbLine
 10
3.136489
 20
33.572229
 30
0.0
 11
257.136781
 21
33.572229
 31
0.0
  0
SOLID
  5
147E
100
AcDbEntity
  8
0
  6
BYBLOCK
 62
     0
100
AcDbTrace
 10
3.136489
 20
34.072229
 30
0.0
 11
3.136489
 21
33.072229
 31
0.0
 12
0.136489
 22
33.572229
 32
0.0
 13
0.136489
 23
33.572229
 33
0.0
  0
SOLID
  5
147F
100
AcDbEntity
  8
0
  6
BYBLOCK
 62
     0
100
AcDbTrace
 10
257.136781
 20
34.072229
 30
0.0
 11
257.136781
 21
33.072229
 31
0.0
 12
260.136781
 22
33.572229
 32
0.0
 13
260.136781
 23
33.572229
 33
0.0
  0
MTEXT
  5
1480
100
AcDbEntity
  8
0
  6
BYBLOCK
 62
     0
100
AcDbMText
 10
130.136635
 20
35.822229
 30
0.0
 40
2.5
 41
0.0
 71
     5
 72
     1
  1
\A1;260
  0
POINT
  5
1481
100
AcDbEntity
  8
DEFPOINTS
  6
BYBLOCK
 62
     0
100
AcDbPoint
 10
0.136489
 20
24.983207
 30
0.0
  0
POINT
  5
1482
100
AcDbEntity
  8
DEFPOINTS
  6
BYBLOCK
 62
     0
100
AcDbPoint
 10
260.136781
 20
24.983207
 30
0.0
  0
POINT
  5
1483
100
AcDbEntity
  8
DEFPOINTS
  6
BYBLOCK
 62
     0
100
AcDbPoint
 10
260.136781
 20
33.572229
 30
0.0
  0
ENDBLK
  5
1484
100
AcDbEntity
  8
0
100
AcDbBlockEnd
  0
ENDSEC
  0
SECTION
  2
ENTITIES
  0
INSERT
  5
CC
100
AcDbEntity
  8
0
100
AcDbBlockReference
  2
SCH_IS
 10
-68.718396
 20
-140.042541
 30
0.0
  0
INSERT
  5
EC
100
AcDbEntity
  8
COTATION1
100
AcDbBlockReference
  2
SCH_IS
 10
0.0
 20
0.0
 30
0.0
  0
POLYLINE
  5
F85
100
AcDbEntity
  8
ALPHA
100
AcDb2dPolyline
 66
     1
 10
0.0
 20
0.0
 30
0.0
  0
VERTEX
  5
F86
100
AcDbEntity
  8
ALPHA
100
AcDbVertex
100
AcDb2dVertex
 10
260.136781
 20
27.883916
 30
0.0
  0
VERTEX
  5
F87
100
AcDbEntity
  8
ALPHA
100
AcDbVertex
100
AcDb2dVertex
 10
260.136781
 20
9.883995
 30
0.0
  0
VERTEX
  5
F88
100
AcDbEntity
  8
ALPHA
100
AcDbVertex
100
AcDb2dVertex
 10
215.886594
 20
9.863992
 30
0.0
  0
VERTEX
  5
F89
100
AcDbEntity
  8
ALPHA
100
AcDbVertex
100
AcDb2dVertex
 10
215.886594
 20
16.86201
 30
0.0
  0
VERTEX
  5
F8A
100
AcDbEntity
  8
ALPHA
100
AcDbVertex
100
AcDb2dVertex
 10
206.386747
 20
16.86201
 30
0.0
  0
VERTEX
  5
F8B
100
AcDbEntity
  8
ALPHA
100
AcDbVertex
100
AcDb2dVertex
 10
206.386747
 20
9.883995
 30
0.0
  0
VERTEX
  5
F8C
100
AcDbEntity
  8
ALPHA
100
AcDbVertex
100
AcDb2dVertex
 10
161.886476
 20
9.863992
 30
0.0
  0
VERTEX
  5
F8D
100
AcDbEntity
  8
ALPHA
100
AcDbVertex
100
AcDb2dVertex
 10
161.886476
 20
16.86201
 30
0.0
  0
VERTEX
  5
F8E
100
AcDbEntity
  8
ALPHA
100
AcDbVertex
100
AcDb2dVertex
 10
152.386594
 20
16.86201
 30
0.0
  0
VERTEX
  5
F8F
100
AcDbEntity
  8
ALPHA
100
AcDbVertex
100
AcDb2dVertex
 10
152.386594
 20
9.883995
 30
0.0
  0
VERTEX
  5
F90
100
AcDbEntity
  8
ALPHA
100
AcDbVertex
100
AcDb2dVertex
 10
107.886323
 20
9.863992
 30
0.0
  0
VERTEX
  5
F91
100
AcDbEntity
  8
ALPHA
100
AcDbVertex
100
AcDb2dVertex
 10
107.886323
 20
16.86201
 30
0.0
  0
VERTEX
  5
F92
100
AcDbEntity
  8
ALPHA
100
AcDbVertex
100
AcDb2dVertex
 10
98.386476
 20
16.86201
 30
0.0
  0
VERTEX
  5
F93
100
AcDbEntity
  8
ALPHA
100
AcDbVertex
100
AcDb2dVertex
 10
98.386476
 20
9.883995
 30
0.0
  0
VERTEX
  5
F94
100
AcDbEntity
  8
ALPHA
100
AcDbVertex
100
AcDb2dVertex
 10
53.88617
 20
9.863992
 30
0.0
  0
VERTEX
  5
F95
100
AcDbEntity
  8
ALPHA
100
AcDbVertex
100
AcDb2dVertex
 10
53.88617
 20
16.86201
 30
0.0
  0
VERTEX
  5
F96
100
AcDbEntity
  8
ALPHA
100
AcDbVertex
100
AcDb2dVertex
 10
44.386641
 20
16.86201
 30
0.0
  0
VERTEX
  5
F97
100
AcDbEntity
  8
ALPHA
100
AcDbVertex
100
AcDb2dVertex
 10
44.386641
 20
9.883995
 30
0.0
  0
VERTEX
  5
F98
100
AcDbEntity
  8
ALPHA
100
AcDbVertex
100
AcDb2dVertex
 10
0.136489
 20
9.863992
 30
0.0
  0
VERTEX
  5
F99
100
AcDbEntity
  8
ALPHA
100
AcDbVertex
100
AcDb2dVertex
 10
0.136489
 20
27.883916
 30
0.0
  0
VERTEX
  5
F9A
100
AcDbEntity
  8
ALPHA
100
AcDbVertex
100
AcDb2dVertex
 10
260.136781
 20
27.883916
 30
0.0
  0
SEQEND
  5
F9B
100
AcDbEntity
  8
ALPHA
  0
POLYLINE
  5
F9C
100
AcDbEntity
  8
ALPHA
100
AcDb2dPolyline
 66
     1
 10
0.0
 20
0.0
 30
0.0
  0
VERTEX
  5
F9D
100
AcDbEntity
  8
ALPHA
100
AcDbVertex
100
AcDb2dVertex
 10
6.773792
 20
9.783735
 30
0.0
  0
VERTEX
  5
F9E
100
AcDbEntity
  8
ALPHA
100
AcDbVertex
100
AcDb2dVertex
 10
6.773792
 20
7.731839
 30
0.0
  0
VERTEX
  5
F9F
100
AcDbEntity
  8
ALPHA
100
AcDbVertex
100
AcDb2dVertex
 10
4.897578
 20
7.2316
 30
0.0
  0
VERTEX
  5
FA0
100
AcDbEntity
  8
ALPHA
100
AcDbVertex
100
AcDb2dVertex
 10
4.897578
 20
-0.116091
 30
0.0
  0
VERTEX
  5
FA1
100
AcDbEntity
  8
ALPHA
100
AcDbVertex
100
AcDb2dVertex
 10
6.773121
 20
1.032483
 30
0.0
  0
VERTEX
  5
FA2
100
AcDbEntity
  8
ALPHA
100
AcDbVertex
100
AcDb2dVertex
 10
6.774497
 20
4.113785
 30
0.0
  0
VERTEX
  5
FA3
100
AcDbEntity
  8
ALPHA
100
AcDbVertex
100
AcDb2dVertex
 10
6.78419
 20
4.326051
 30
0.0
  0
VERTEX
  5
FA4
100
AcDbEntity
  8
ALPHA
100
AcDbVertex
100
AcDb2dVertex
 10
6.812635
 20
4.531854
 30
0.0
  0
VERTEX
  5
FA5
100
AcDbEntity
  8
ALPHA
100
AcDbVertex
100
AcDb2dVertex
 10
6.858885
 20
4.730195
 30
0.0
  0
VERTEX
  5
FA6
100
AcDbEntity
  8
ALPHA
100
AcDbVertex
100
AcDb2dVertex
 10
6.92199
 20
4.920077
 30
0.0
  0
VERTEX
  5
FA7
100
AcDbEntity
  8
ALPHA
100
AcDbVertex
100
AcDb2dVertex
 10
7.001001
 20
5.100502
 30
0.0
  0
VERTEX
  5
FA8
100
AcDbEntity
  8
ALPHA
100
AcDbVertex
100
AcDb2dVertex
 10
7.094971
 20
5.270472
 30
0.0
  0
VERTEX
  5
FA9
100
AcDbEntity
  8
ALPHA
100
AcDbVertex
100
AcDb2dVertex
 10
7.202949
 20
5.428989
 30
0.0
  0
VERTEX
  5
FAA
100
AcDbEntity
  8
ALPHA
100
AcDbVertex
100
AcDb2dVertex
 10
7.323988
 20
5.575057
 30
0.0
  0
VERTEX
  5
FAB
100
AcDbEntity
  8
ALPHA
100
AcDbVertex
100
AcDb2dVertex
 10
7.457139
 20
5.707676
 30
0.0
  0
VERTEX
  5
FAC
100
AcDbEntity
  8
ALPHA
100
AcDbVertex
100
AcDb2dVertex
 10
7.601453
 20
5.82585
 30
0.0
  0
VERTEX
  5
FAD
100
AcDbEntity
  8
ALPHA
100
AcDbVertex
100
AcDb2dVertex
 10
7.755981
 20
5.928581
 30
0.0
  0
VERTEX
  5
FAE
100
AcDbEntity
  8
ALPHA
100
AcDbVertex
100
AcDb2dVertex
 10
7.919774
 20
6.014871
 30
0.0
  0
VERTEX
  5
FAF
100
AcDbEntity
  8
ALPHA
100
AcDbVertex
100
AcDb2dVertex
 10
8.091885
 20
6.083722
 30
0.0
  0
VERTEX
  5
FB0
100
AcDbEntity
  8
ALPHA
100
AcDbVertex
100
AcDb2dVertex
 10
8.271363
 20
6.134136
 30
0.0
  0
VERTEX
  5
FB1
100
AcDbEntity
  8
ALPHA
100
AcDbVertex
100
AcDb2dVertex
 10
8.457261
 20
6.165117
 30
0.0
  0
VERTEX
  5
FB2
100
AcDbEntity
  8
ALPHA
100
AcDbVertex
100
AcDb2dVertex
 10
8.648629
 20
6.175665
 30
0.0
  0
VERTEX
  5
FB3
100
AcDbEntity
  8
ALPHA
100
AcDbVertex
100
AcDb2dVertex
 10
8.839957
 20
6.165117
 30
0.0
  0
VERTEX
  5
FB4
100
AcDbEntity
  8
ALPHA
100
AcDbVertex
100
AcDb2dVertex
 10
9.025754
 20
6.134136
 30
0.0
  0
VERTEX
  5
FB5
100
AcDbEntity
  8
ALPHA
100
AcDbVertex
100
AcDb2dVertex
 10
9.205081
 20
6.083722
 30
0.0
  0
VERTEX
  5
FB6
100
AcDbEntity
  8
ALPHA
100
AcDbVertex
100
AcDb2dVertex
 10
9.377
 20
6.014871
 30
0.0
  0
VERTEX
  5
FB7
100
AcDbEntity
  8
ALPHA
100
AcDbVertex
100
AcDb2dVertex
 10
9.540573
 20
5.928581
 30
0.0
  0
VERTEX
  5
FB8
100
AcDbEntity
  8
ALPHA
100
AcDbVertex
100
AcDb2dVertex
 10
9.694861
 20
5.82585
 30
0.0
  0
VERTEX
  5
FB9
100
AcDbEntity
  8
ALPHA
100
AcDbVertex
100
AcDb2dVertex
 10
9.838927
 20
5.707676
 30
0.0
  0
VERTEX
  5
FBA
100
AcDbEntity
  8
ALPHA
100
AcDbVertex
100
AcDb2dVertex
 10
9.971832
 20
5.575056
 30
0.0
  0
VERTEX
  5
FBB
100
AcDbEntity
  8
ALPHA
100
AcDbVertex
100
AcDb2dVertex
 10
10.092637
 20
5.428989
 30
0.0
  0
VERTEX
  5
FBC
100
AcDbEntity
  8
ALPHA
100
AcDbVertex
100
AcDb2dVertex
 10
10.200405
 20
5.270471
 30
0.0
  0
VERTEX
  5
FBD
100
AcDbEntity
  8
ALPHA
100
AcDbVertex
100
AcDb2dVertex
 10
10.294197
 20
5.100501
 30
0.0
  0
VERTEX
  5
FBE
100
AcDbEntity
  8
ALPHA
100
AcDbVertex
100
AcDb2dVertex
 10
10.373075
 20
4.920076
 30
0.0
  0
VERTEX
  5
FBF
100
AcDbEntity
  8
ALPHA
100
AcDbVertex
100
AcDb2dVertex
 10
10.436101
 20
4.730195
 30
0.0
  0
VERTEX
  5
FC0
100
AcDbEntity
  8
ALPHA
100
AcDbVertex
100
AcDb2dVertex
 10
10.482335
 20
4.531854
 30
0.0
  0
VERTEX
  5
FC1
100
AcDbEntity
  8
ALPHA
100
AcDbVertex
100
AcDb2dVertex
 10
10.510841
 20
4.326051
 30
0.0
  0
VERTEX
  5
FC2
100
AcDbEntity
  8
ALPHA
100
AcDbVertex
100
AcDb2dVertex
 10
10.52068
 20
4.113785
 30
0.0
  0
VERTEX
  5
FC3
100
AcDbEntity
  8
ALPHA
100
AcDbVertex
100
AcDb2dVertex
 10
10.523431
 20
1.032483
 30
0.0
  0
VERTEX
  5
FC4
100
AcDbEntity
  8
ALPHA
100
AcDbVertex
100
AcDb2dVertex
 10
12.398939
 20
-0.116091
 30
0.0
  0
VERTEX
  5
FC5
100
AcDbEntity
  8
ALPHA
100
AcDbVertex
100
AcDb2dVertex
 10
12.398939
 20
7.2316
 30
0.0
  0
VERTEX
  5
FC6
100
AcDbEntity
  8
ALPHA
100
AcDbVertex
100
AcDb2dVertex
 10
10.524137
 20
7.731839
 30
0.0
  0
VERTEX
  5
FC7
100
AcDbEntity
  8
ALPHA
100
AcDbVertex
100
AcDb2dVertex
 10
10.524137
 20
9.783735
 30
0.0
  0
SEQEND
  5
FC8
100
AcDbEntity
  8
ALPHA
  0
POLYLINE
  5
FC9
100
AcDbEntity
  8
ALPHA
100
AcDb2dPolyline
 66
     1
 10
0.0
 20
0.0
 30
0.0
  0
VERTEX
  5
FCA
100
AcDbEntity
  8
ALPHA
100
AcDbVertex
100
AcDb2dVertex
 10
20.24895
 20
9.783735
 30
0.0
  0
VERTEX
  5
FCB
100
AcDbEntity
  8
ALPHA
100
AcDbVertex
100
AcDb2dVertex
 10
20.24895
 20
7.731839
 30
0.0
  0
VERTEX
  5
FCC
100
AcDbEntity
  8
ALPHA
100
AcDbVertex
100
AcDb2dVertex
 10
18.372737
 20
7.2316
 30
0.0
  0
VERTEX
  5
FCD
100
AcDbEntity
  8
ALPHA
100
AcDbVertex
100
AcDb2dVertex
 10
18.372737
 20
-0.116091
 30
0.0
  0
VERTEX
  5
FCE
100
AcDbEntity
  8
ALPHA
100
AcDbVertex
100
AcDb2dVertex
 10
20.248245
 20
1.032483
 30
0.0
  0
VERTEX
  5
FCF
100
AcDbEntity
  8
ALPHA
100
AcDbVertex
100
AcDb2dVertex
 10
20.24962
 20
4.113785
 30
0.0
  0
VERTEX
  5
FD0
100
AcDbEntity
  8
ALPHA
100
AcDbVertex
100
AcDb2dVertex
 10
20.259313
 20
4.326051
 30
0.0
  0
VERTEX
  5
FD1
100
AcDbEntity
  8
ALPHA
100
AcDbVertex
100
AcDb2dVertex
 10
20.287759
 20
4.531854
 30
0.0
  0
VERTEX
  5
FD2
100
AcDbEntity
  8
ALPHA
100
AcDbVertex
100
AcDb2dVertex
 10
20.334008
 20
4.730195
 30
0.0
  0
VERTEX
  5
FD3
100
AcDbEntity
  8
ALPHA
100
AcDbVertex
100
AcDb2dVertex
 10
20.397113
 20
4.920077
 30
0.0
  0
VERTEX
  5
FD4
100
AcDbEntity
  8
ALPHA
100
AcDbVertex
100
AcDb2dVertex
 10
20.476125
 20
5.100502
 30
0.0
  0
VERTEX
  5
FD5
100
AcDbEntity
  8
ALPHA
100
AcDbVertex
100
AcDb2dVertex
 10
20.570094
 20
5.270472
 30
0.0
  0
VERTEX
  5
FD6
100
AcDbEntity
  8
ALPHA
100
AcDbVertex
100
AcDb2dVertex
 10
20.678073
 20
5.428989
 30
0.0
  0
VERTEX
  5
FD7
100
AcDbEntity
  8
ALPHA
100
AcDbVertex
100
AcDb2dVertex
 10
20.799112
 20
5.575057
 30
0.0
  0
VERTEX
  5
FD8
100
AcDbEntity
  8
ALPHA
100
AcDbVertex
100
AcDb2dVertex
 10
20.932262
 20
5.707676
 30
0.0
  0
VERTEX
  5
FD9
100
AcDbEntity
  8
ALPHA
100
AcDbVertex
100
AcDb2dVertex
 10
21.076576
 20
5.82585
 30
0.0
  0
VERTEX
  5
FDA
100
AcDbEntity
  8
ALPHA
100
AcDbVertex
100
AcDb2dVertex
 10
21.231104
 20
5.928581
 30
0.0
  0
VERTEX
  5
FDB
100
AcDbEntity
  8
ALPHA
100
AcDbVertex
100
AcDb2dVertex
 10
21.394898
 20
6.014871
 30
0.0
  0
VERTEX
  5
FDC
100
AcDbEntity
  8
ALPHA
100
AcDbVertex
100
AcDb2dVertex
 10
21.567008
 20
6.083722
 30
0.0
  0
VERTEX
  5
FDD
100
AcDbEntity
  8
ALPHA
100
AcDbVertex
100
AcDb2dVertex
 10
21.746486
 20
6.134136
 30
0.0
  0
VERTEX
  5
FDE
100
AcDbEntity
  8
ALPHA
100
AcDbVertex
100
AcDb2dVertex
 10
21.932384
 20
6.165117
 30
0.0
  0
VERTEX
  5
FDF
100
AcDbEntity
  8
ALPHA
100
AcDbVertex
100
AcDb2dVertex
 10
22.123752
 20
6.175665
 30
0.0
  0
VERTEX
  5
FE0
100
AcDbEntity
  8
ALPHA
100
AcDbVertex
100
AcDb2dVertex
 10
22.315087
 20
6.165117
 30
0.0
  0
VERTEX
  5
FE1
100
AcDbEntity
  8
ALPHA
100
AcDbVertex
100
AcDb2dVertex
 10
22.500889
 20
6.134136
 30
0.0
  0
VERTEX
  5
FE2
100
AcDbEntity
  8
ALPHA
100
AcDbVertex
100
AcDb2dVertex
 10
22.68022
 20
6.083722
 30
0.0
  0
VERTEX
  5
FE3
100
AcDbEntity
  8
ALPHA
100
AcDbVertex
100
AcDb2dVertex
 10
22.852143
 20
6.014871
 30
0.0
  0
VERTEX
  5
FE4
100
AcDbEntity
  8
ALPHA
100
AcDbVertex
100
AcDb2dVertex
 10
23.01572
 20
5.928581
 30
0.0
  0
VERTEX
  5
FE5
100
AcDbEntity
  8
ALPHA
100
AcDbVertex
100
AcDb2dVertex
 10
23.170011
 20
5.82585
 30
0.0
  0
VERTEX
  5
FE6
100
AcDbEntity
  8
ALPHA
100
AcDbVertex
100
AcDb2dVertex
 10
23.314079
 20
5.707676
 30
0.0
  0
VERTEX
  5
FE7
100
AcDbEntity
  8
ALPHA
100
AcDbVertex
100
AcDb2dVertex
 10
23.446986
 20
5.575056
 30
0.0
  0
VERTEX
  5
FE8
100
AcDbEntity
  8
ALPHA
100
AcDbVertex
100
AcDb2dVertex
 10
23.567793
 20
5.428989
 30
0.0
  0
VERTEX
  5
FE9
100
AcDbEntity
  8
ALPHA
100
AcDbVertex
100
AcDb2dVertex
 10
23.675562
 20
5.270471
 30
0.0
  0
VERTEX
  5
FEA
100
AcDbEntity
  8
ALPHA
100
AcDbVertex
100
AcDb2dVertex
 10
23.769355
 20
5.100501
 30
0.0
  0
VERTEX
  5
FEB
100
AcDbEntity
  8
ALPHA
100
AcDbVertex
100
AcDb2dVertex
 10
23.848233
 20
4.920076
 30
0.0
  0
VERTEX
  5
FEC
100
AcDbEntity
  8
ALPHA
100
AcDbVertex
100
AcDb2dVertex
 10
23.911259
 20
4.730195
 30
0.0
  0
VERTEX
  5
FED
100
AcDbEntity
  8
ALPHA
100
AcDbVertex
100
AcDb2dVertex
 10
23.957494
 20
4.531854
 30
0.0
  0
VERTEX
  5
FEE
100
AcDbEntity
  8
ALPHA
100
AcDbVertex
100
AcDb2dVertex
 10
23.986
 20
4.326051
 30
0.0
  0
VERTEX
  5
FEF
100
AcDbEntity
  8
ALPHA
100
AcDbVertex
100
AcDb2dVertex
 10
23.995838
 20
4.113785
 30
0.0
  0
VERTEX
  5
FF0
100
AcDbEntity
  8
ALPHA
100
AcDbVertex
100
AcDb2dVertex
 10
23.99859
 20
1.032483
 30
0.0
  0
VERTEX
  5
FF1
100
AcDbEntity
  8
ALPHA
100
AcDbVertex
100
AcDb2dVertex
 10
25.874098
 20
-0.116091
 30
0.0
  0
VERTEX
  5
FF2
100
AcDbEntity
  8
ALPHA
100
AcDbVertex
100
AcDb2dVertex
 10
25.874098
 20
7.2316
 30
0.0
  0
VERTEX
  5
FF3
100
AcDbEntity
  8
ALPHA
100
AcDbVertex
100
AcDb2dVertex
 10
23.99926
 20
7.731839
 30
0.0
  0
VERTEX
  5
FF4
100
AcDbEntity
  8
ALPHA
100
AcDbVertex
100
AcDb2dVertex
 10
23.99926
 20
9.783735
 30
0.0
  0
SEQEND
  5
FF5
100
AcDbEntity
  8
ALPHA
  0
POLYLINE
  5
FF6
100
AcDbEntity
  8
ALPHA
100
AcDb2dPolyline
 66
     1
 10
0.0
 20
0.0
 30
0.0
  0
VERTEX
  5
FF7
100
AcDbEntity
  8
ALPHA
100
AcDbVertex
100
AcDb2dVertex
 10
33.748874
 20
9.783735
 30
0.0
  0
VERTEX
  5
FF8
100
AcDbEntity
  8
ALPHA
100
AcDbVertex
100
AcDb2dVertex
 10
33.748874
 20
7.731839
 30
0.0
  0
VERTEX
  5
FF9
100
AcDbEntity
  8
ALPHA
100
AcDbVertex
100
AcDb2dVertex
 10
31.872696
 20
7.2316
 30
0.0
  0
VERTEX
  5
FFA
100
AcDbEntity
  8
ALPHA
100
AcDbVertex
100
AcDb2dVertex
 10
31.872696
 20
-0.116091
 30
0.0
  0
VERTEX
  5
FFB
100
AcDbEntity
  8
ALPHA
100
AcDbVertex
100
AcDb2dVertex
 10
33.748204
 20
1.032483
 30
0.0
  0
VERTEX
  5
FFC
100
AcDbEntity
  8
ALPHA
100
AcDbVertex
100
AcDb2dVertex
 10
33.749579
 20
4.113785
 30
0.0
  0
VERTEX
  5
FFD
100
AcDbEntity
  8
ALPHA
100
AcDbVertex
100
AcDb2dVertex
 10
33.759272
 20
4.326051
 30
0.0
  0
VERTEX
  5
FFE
100
AcDbEntity
  8
ALPHA
100
AcDbVertex
100
AcDb2dVertex
 10
33.787717
 20
4.531854
 30
0.0
  0
VERTEX
  5
FFF
100
AcDbEntity
  8
ALPHA
100
AcDbVertex
100
AcDb2dVertex
 10
33.833967
 20
4.730195
 30
0.0
  0
VERTEX
  5
1000
100
AcDbEntity
  8
ALPHA
100
AcDbVertex
100
AcDb2dVertex
 10
33.897072
 20
4.920077
 30
0.0
  0
VERTEX
  5
1001
100
AcDbEntity
  8
ALPHA
100
AcDbVertex
100
AcDb2dVertex
 10
33.976083
 20
5.100502
 30
0.0
  0
VERTEX
  5
1002
100
AcDbEntity
  8
ALPHA
100
AcDbVertex
100
AcDb2dVertex
 10
34.070053
 20
5.270472
 30
0.0
  0
VERTEX
  5
1003
100
AcDbEntity
  8
ALPHA
100
AcDbVertex
100
AcDb2dVertex
 10
34.178031
 20
5.428989
 30
0.0
  0
VERTEX
  5
1004
100
AcDbEntity
  8
ALPHA
100
AcDbVertex
100
AcDb2dVertex
 10
34.29907
 20
5.575057
 30
0.0
  0
VERTEX
  5
1005
100
AcDbEntity
  8
ALPHA
100
AcDbVertex
100
AcDb2dVertex
 10
34.432221
 20
5.707676
 30
0.0
  0
VERTEX
  5
1006
100
AcDbEntity
  8
ALPHA
100
AcDbVertex
100
AcDb2dVertex
 10
34.576535
 20
5.82585
 30
0.0
  0
VERTEX
  5
1007
100
AcDbEntity
  8
ALPHA
100
AcDbVertex
100
AcDb2dVertex
 10
34.731063
 20
5.928581
 30
0.0
  0
VERTEX
  5
1008
100
AcDbEntity
  8
ALPHA
100
AcDbVertex
100
AcDb2dVertex
 10
34.894856
 20
6.014871
 30
0.0
  0
VERTEX
  5
1009
100
AcDbEntity
  8
ALPHA
100
AcDbVertex
100
AcDb2dVertex
 10
35.066967
 20
6.083722
 30
0.0
  0
VERTEX
  5
100A
100
AcDbEntity
  8
ALPHA
100
AcDbVertex
100
AcDb2dVertex
 10
35.246445
 20
6.134136
 30
0.0
  0
VERTEX
  5
100B
100
AcDbEntity
  8
ALPHA
100
AcDbVertex
100
AcDb2dVertex
 10
35.432343
 20
6.165117
 30
0.0
  0
VERTEX
  5
100C
100
AcDbEntity
  8
ALPHA
100
AcDbVertex
100
AcDb2dVertex
 10
35.623711
 20
6.175665
 30
0.0
  0
VERTEX
  5
100D
100
AcDbEntity
  8
ALPHA
100
AcDbVertex
100
AcDb2dVertex
 10
35.815045
 20
6.165117
 30
0.0
  0
VERTEX
  5
100E
100
AcDbEntity
  8
ALPHA
100
AcDbVertex
100
AcDb2dVertex
 10
36.000845
 20
6.134136
 30
0.0
  0
VERTEX
  5
100F
100
AcDbEntity
  8
ALPHA
100
AcDbVertex
100
AcDb2dVertex
 10
36.180175
 20
6.083722
 30
0.0
  0
VERTEX
  5
1010
100
AcDbEntity
  8
ALPHA
100
AcDbVertex
100
AcDb2dVertex
 10
36.352095
 20
6.014871
 30
0.0
  0
VERTEX
  5
1011
100
AcDbEntity
  8
ALPHA
100
AcDbVertex
100
AcDb2dVertex
 10
36.515668
 20
5.928581
 30
0.0
  0
VERTEX
  5
1012
100
AcDbEntity
  8
ALPHA
100
AcDbVertex
100
AcDb2dVertex
 10
36.669955
 20
5.82585
 30
0.0
  0
VERTEX
  5
1013
100
AcDbEntity
  8
ALPHA
100
AcDbVertex
100
AcDb2dVertex
 10
36.81402
 20
5.707676
 30
0.0
  0
VERTEX
  5
1014
100
AcDbEntity
  8
ALPHA
100
AcDbVertex
100
AcDb2dVertex
 10
36.946922
 20
5.575056
 30
0.0
  0
VERTEX
  5
1015
100
AcDbEntity
  8
ALPHA
100
AcDbVertex
100
AcDb2dVertex
 10
37.067725
 20
5.428989
 30
0.0
  0
VERTEX
  5
1016
100
AcDbEntity
  8
ALPHA
100
AcDbVertex
100
AcDb2dVertex
 10
37.175491
 20
5.270471
 30
0.0
  0
VERTEX
  5
1017
100
AcDbEntity
  8
ALPHA
100
AcDbVertex
100
AcDb2dVertex
 10
37.269281
 20
5.100501
 30
0.0
  0
VERTEX
  5
1018
100
AcDbEntity
  8
ALPHA
100
AcDbVertex
100
AcDb2dVertex
 10
37.348157
 20
4.920076
 30
0.0
  0
VERTEX
  5
1019
100
AcDbEntity
  8
ALPHA
100
AcDbVertex
100
AcDb2dVertex
 10
37.411181
 20
4.730195
 30
0.0
  0
VERTEX
  5
101A
100
AcDbEntity
  8
ALPHA
100
AcDbVertex
100
AcDb2dVertex
 10
37.457415
 20
4.531854
 30
0.0
  0
VERTEX
  5
101B
100
AcDbEntity
  8
ALPHA
100
AcDbVertex
100
AcDb2dVertex
 10
37.485922
 20
4.326051
 30
0.0
  0
VERTEX
  5
101C
100
AcDbEntity
  8
ALPHA
100
AcDbVertex
100
AcDb2dVertex
 10
37.495762
 20
4.113785
 30
0.0
  0
VERTEX
  5
101D
100
AcDbEntity
  8
ALPHA
100
AcDbVertex
100
AcDb2dVertex
 10
37.498549
 20
1.032483
 30
0.0
  0
VERTEX
  5
101E
100
AcDbEntity
  8
ALPHA
100
AcDbVertex
100
AcDb2dVertex
 10
39.374057
 20
-0.116091
 30
0.0
  0
VERTEX
  5
101F
100
AcDbEntity
  8
ALPHA
100
AcDbVertex
100
AcDb2dVertex
 10
39.374057
 20
7.2316
 30
0.0
  0
VERTEX
  5
1020
100
AcDbEntity
  8
ALPHA
100
AcDbVertex
100
AcDb2dVertex
 10
37.499219
 20
7.731839
 30
0.0
  0
VERTEX
  5
1021
100
AcDbEntity
  8
ALPHA
100
AcDbVertex
100
AcDb2dVertex
 10
37.499219
 20
9.783735
 30
0.0
  0
SEQEND
  5
1022
100
AcDbEntity
  8
ALPHA
  0
POLYLINE
  5
1023
100
AcDbEntity
  8
ALPHA
100
AcDb2dPolyline
 66
     1
 10
0.0
 20
0.0
 30
0.0
  0
VERTEX
  5
1024
100
AcDbEntity
  8
ALPHA
100
AcDbVertex
100
AcDb2dVertex
 10
60.773592
 20
9.783735
 30
0.0
  0
VERTEX
  5
1025
100
AcDbEntity
  8
ALPHA
100
AcDbVertex
100
AcDb2dVertex
 10
60.773592
 20
7.731839
 30
0.0
  0
VERTEX
  5
1026
100
AcDbEntity
  8
ALPHA
100
AcDbVertex
100
AcDb2dVertex
 10
58.897414
 20
7.2316
 30
0.0
  0
VERTEX
  5
1027
100
AcDbEntity
  8
ALPHA
100
AcDbVertex
100
AcDb2dVertex
 10
58.897414
 20
-0.116091
 30
0.0
  0
VERTEX
  5
1028
100
AcDbEntity
  8
ALPHA
100
AcDbVertex
100
AcDb2dVertex
 10
60.772922
 20
1.032483
 30
0.0
  0
VERTEX
  5
1029
100
AcDbEntity
  8
ALPHA
100
AcDbVertex
100
AcDb2dVertex
 10
60.774297
 20
4.113785
 30
0.0
  0
VERTEX
  5
102A
100
AcDbEntity
  8
ALPHA
100
AcDbVertex
100
AcDb2dVertex
 10
60.78399
 20
4.326051
 30
0.0
  0
VERTEX
  5
102B
100
AcDbEntity
  8
ALPHA
100
AcDbVertex
100
AcDb2dVertex
 10
60.812436
 20
4.531854
 30
0.0
  0
VERTEX
  5
102C
100
AcDbEntity
  8
ALPHA
100
AcDbVertex
100
AcDb2dVertex
 10
60.858685
 20
4.730195
 30
0.0
  0
VERTEX
  5
102D
100
AcDbEntity
  8
ALPHA
100
AcDbVertex
100
AcDb2dVertex
 10
60.92179
 20
4.920077
 30
0.0
  0
VERTEX
  5
102E
100
AcDbEntity
  8
ALPHA
100
AcDbVertex
100
AcDb2dVertex
 10
61.000801
 20
5.100502
 30
0.0
  0
VERTEX
  5
102F
100
AcDbEntity
  8
ALPHA
100
AcDbVertex
100
AcDb2dVertex
 10
61.094771
 20
5.270472
 30
0.0
  0
VERTEX
  5
1030
100
AcDbEntity
  8
ALPHA
100
AcDbVertex
100
AcDb2dVertex
 10
61.202749
 20
5.428989
 30
0.0
  0
VERTEX
  5
1031
100
AcDbEntity
  8
ALPHA
100
AcDbVertex
100
AcDb2dVertex
 10
61.323789
 20
5.575057
 30
0.0
  0
VERTEX
  5
1032
100
AcDbEntity
  8
ALPHA
100
AcDbVertex
100
AcDb2dVertex
 10
61.456939
 20
5.707676
 30
0.0
  0
VERTEX
  5
1033
100
AcDbEntity
  8
ALPHA
100
AcDbVertex
100
AcDb2dVertex
 10
61.601253
 20
5.82585
 30
0.0
  0
VERTEX
  5
1034
100
AcDbEntity
  8
ALPHA
100
AcDbVertex
100
AcDb2dVertex
 10
61.755781
 20
5.928581
 30
0.0
  0
VERTEX
  5
1035
100
AcDbEntity
  8
ALPHA
100
AcDbVertex
100
AcDb2dVertex
 10
61.919574
 20
6.014871
 30
0.0
  0
VERTEX
  5
1036
100
AcDbEntity
  8
ALPHA
100
AcDbVertex
100
AcDb2dVertex
 10
62.091685
 20
6.083722
 30
0.0
  0
VERTEX
  5
1037
100
AcDbEntity
  8
ALPHA
100
AcDbVertex
100
AcDb2dVertex
 10
62.271163
 20
6.134136
 30
0.0
  0
VERTEX
  5
1038
100
AcDbEntity
  8
ALPHA
100
AcDbVertex
100
AcDb2dVertex
 10
62.457061
 20
6.165117
 30
0.0
  0
VERTEX
  5
1039
100
AcDbEntity
  8
ALPHA
100
AcDbVertex
100
AcDb2dVertex
 10
62.648429
 20
6.175665
 30
0.0
  0
VERTEX
  5
103A
100
AcDbEntity
  8
ALPHA
100
AcDbVertex
100
AcDb2dVertex
 10
62.839763
 20
6.165117
 30
0.0
  0
VERTEX
  5
103B
100
AcDbEntity
  8
ALPHA
100
AcDbVertex
100
AcDb2dVertex
 10
63.025564
 20
6.134136
 30
0.0
  0
VERTEX
  5
103C
100
AcDbEntity
  8
ALPHA
100
AcDbVertex
100
AcDb2dVertex
 10
63.204894
 20
6.083722
 30
0.0
  0
VERTEX
  5
103D
100
AcDbEntity
  8
ALPHA
100
AcDbVertex
100
AcDb2dVertex
 10
63.376815
 20
6.014871
 30
0.0
  0
VERTEX
  5
103E
100
AcDbEntity
  8
ALPHA
100
AcDbVertex
100
AcDb2dVertex
 10
63.540389
 20
5.928581
 30
0.0
  0
VERTEX
  5
103F
100
AcDbEntity
  8
ALPHA
100
AcDbVertex
100
AcDb2dVertex
 10
63.694677
 20
5.82585
 30
0.0
  0
VERTEX
  5
1040
100
AcDbEntity
  8
ALPHA
100
AcDbVertex
100
AcDb2dVertex
 10
63.838742
 20
5.707676
 30
0.0
  0
VERTEX
  5
1041
100
AcDbEntity
  8
ALPHA
100
AcDbVertex
100
AcDb2dVertex
 10
63.971645
 20
5.575056
 30
0.0
  0
VERTEX
  5
1042
100
AcDbEntity
  8
ALPHA
100
AcDbVertex
100
AcDb2dVertex
 10
64.092449
 20
5.428989
 30
0.0
  0
VERTEX
  5
1043
100
AcDbEntity
  8
ALPHA
100
AcDbVertex
100
AcDb2dVertex
 10
64.200215
 20
5.270471
 30
0.0
  0
VERTEX
  5
1044
100
AcDbEntity
  8
ALPHA
100
AcDbVertex
100
AcDb2dVertex
 10
64.294005
 20
5.100501
 30
0.0
  0
VERTEX
  5
1045
100
AcDbEntity
  8
ALPHA
100
AcDbVertex
100
AcDb2dVertex
 10
64.37288
 20
4.920076
 30
0.0
  0
VERTEX
  5
1046
100
AcDbEntity
  8
ALPHA
100
AcDbVertex
100
AcDb2dVertex
 10
64.435904
 20
4.730195
 30
0.0
  0
VERTEX
  5
1047
100
AcDbEntity
  8
ALPHA
100
AcDbVertex
100
AcDb2dVertex
 10
64.482137
 20
4.531854
 30
0.0
  0
VERTEX
  5
1048
100
AcDbEntity
  8
ALPHA
100
AcDbVertex
100
AcDb2dVertex
 10
64.510642
 20
4.326051
 30
0.0
  0
VERTEX
  5
1049
100
AcDbEntity
  8
ALPHA
100
AcDbVertex
100
AcDb2dVertex
 10
64.52048
 20
4.113785
 30
0.0
  0
VERTEX
  5
104A
100
AcDbEntity
  8
ALPHA
100
AcDbVertex
100
AcDb2dVertex
 10
64.523232
 20
1.032483
 30
0.0
  0
VERTEX
  5
104B
100
AcDbEntity
  8
ALPHA
100
AcDbVertex
100
AcDb2dVertex
 10
66.398739
 20
-0.116091
 30
0.0
  0
VERTEX
  5
104C
100
AcDbEntity
  8
ALPHA
100
AcDbVertex
100
AcDb2dVertex
 10
66.398739
 20
7.2316
 30
0.0
  0
VERTEX
  5
104D
100
AcDbEntity
  8
ALPHA
100
AcDbVertex
100
AcDb2dVertex
 10
64.523937
 20
7.731839
 30
0.0
  0
VERTEX
  5
104E
100
AcDbEntity
  8
ALPHA
100
AcDbVertex
100
AcDb2dVertex
 10
64.523937
 20
9.783735
 30
0.0
  0
SEQEND
  5
104F
100
AcDbEntity
  8
ALPHA
  0
POLYLINE
  5
1050
100
AcDbEntity
  8
ALPHA
100
AcDb2dPolyline
 66
     1
 10
0.0
 20
0.0
 30
0.0
  0
VERTEX
  5
1051
100
AcDbEntity
  8
ALPHA
100
AcDbVertex
100
AcDb2dVertex
 10
74.24875
 20
9.783735
 30
0.0
  0
VERTEX
  5
1052
100
AcDbEntity
  8
ALPHA
100
AcDbVertex
100
AcDb2dVertex
 10
74.24875
 20
7.731839
 30
0.0
  0
VERTEX
  5
1053
100
AcDbEntity
  8
ALPHA
100
AcDbVertex
100
AcDb2dVertex
 10
72.372537
 20
7.2316
 30
0.0
  0
VERTEX
  5
1054
100
AcDbEntity
  8
ALPHA
100
AcDbVertex
100
AcDb2dVertex
 10
72.372537
 20
-0.116091
 30
0.0
  0
VERTEX
  5
1055
100
AcDbEntity
  8
ALPHA
100
AcDbVertex
100
AcDb2dVertex
 10
74.248045
 20
1.032483
 30
0.0
  0
VERTEX
  5
1056
100
AcDbEntity
  8
ALPHA
100
AcDbVertex
100
AcDb2dVertex
 10
74.249421
 20
4.113785
 30
0.0
  0
VERTEX
  5
1057
100
AcDbEntity
  8
ALPHA
100
AcDbVertex
100
AcDb2dVertex
 10
74.259113
 20
4.326051
 30
0.0
  0
VERTEX
  5
1058
100
AcDbEntity
  8
ALPHA
100
AcDbVertex
100
AcDb2dVertex
 10
74.287559
 20
4.531854
 30
0.0
  0
VERTEX
  5
1059
100
AcDbEntity
  8
ALPHA
100
AcDbVertex
100
AcDb2dVertex
 10
74.333808
 20
4.730195
 30
0.0
  0
VERTEX
  5
105A
100
AcDbEntity
  8
ALPHA
100
AcDbVertex
100
AcDb2dVertex
 10
74.396913
 20
4.920077
 30
0.0
  0
VERTEX
  5
105B
100
AcDbEntity
  8
ALPHA
100
AcDbVertex
100
AcDb2dVertex
 10
74.475925
 20
5.100502
 30
0.0
  0
VERTEX
  5
105C
100
AcDbEntity
  8
ALPHA
100
AcDbVertex
100
AcDb2dVertex
 10
74.569894
 20
5.270472
 30
0.0
  0
VERTEX
  5
105D
100
AcDbEntity
  8
ALPHA
100
AcDbVertex
100
AcDb2dVertex
 10
74.677873
 20
5.428989
 30
0.0
  0
VERTEX
  5
105E
100
AcDbEntity
  8
ALPHA
100
AcDbVertex
100
AcDb2dVertex
 10
74.798912
 20
5.575057
 30
0.0
  0
VERTEX
  5
105F
100
AcDbEntity
  8
ALPHA
100
AcDbVertex
100
AcDb2dVertex
 10
74.932063
 20
5.707676
 30
0.0
  0
VERTEX
  5
1060
100
AcDbEntity
  8
ALPHA
100
AcDbVertex
100
AcDb2dVertex
 10
75.076376
 20
5.82585
 30
0.0
  0
VERTEX
  5
1061
100
AcDbEntity
  8
ALPHA
100
AcDbVertex
100
AcDb2dVertex
 10
75.230904
 20
5.928581
 30
0.0
  0
VERTEX
  5
1062
100
AcDbEntity
  8
ALPHA
100
AcDbVertex
100
AcDb2dVertex
 10
75.394698
 20
6.014871
 30
0.0
  0
VERTEX
  5
1063
100
AcDbEntity
  8
ALPHA
100
AcDbVertex
100
AcDb2dVertex
 10
75.566808
 20
6.083722
 30
0.0
  0
VERTEX
  5
1064
100
AcDbEntity
  8
ALPHA
100
AcDbVertex
100
AcDb2dVertex
 10
75.746287
 20
6.134136
 30
0.0
  0
VERTEX
  5
1065
100
AcDbEntity
  8
ALPHA
100
AcDbVertex
100
AcDb2dVertex
 10
75.932184
 20
6.165117
 30
0.0
  0
VERTEX
  5
1066
100
AcDbEntity
  8
ALPHA
100
AcDbVertex
100
AcDb2dVertex
 10
76.123553
 20
6.175665
 30
0.0
  0
VERTEX
  5
1067
100
AcDbEntity
  8
ALPHA
100
AcDbVertex
100
AcDb2dVertex
 10
76.314887
 20
6.165117
 30
0.0
  0
VERTEX
  5
1068
100
AcDbEntity
  8
ALPHA
100
AcDbVertex
100
AcDb2dVertex
 10
76.500689
 20
6.134136
 30
0.0
  0
VERTEX
  5
1069
100
AcDbEntity
  8
ALPHA
100
AcDbVertex
100
AcDb2dVertex
 10
76.680021
 20
6.083722
 30
0.0
  0
VERTEX
  5
106A
100
AcDbEntity
  8
ALPHA
100
AcDbVertex
100
AcDb2dVertex
 10
76.851944
 20
6.014871
 30
0.0
  0
VERTEX
  5
106B
100
AcDbEntity
  8
ALPHA
100
AcDbVertex
100
AcDb2dVertex
 10
77.01552
 20
5.928581
 30
0.0
  0
VERTEX
  5
106C
100
AcDbEntity
  8
ALPHA
100
AcDbVertex
100
AcDb2dVertex
 10
77.169811
 20
5.82585
 30
0.0
  0
VERTEX
  5
106D
100
AcDbEntity
  8
ALPHA
100
AcDbVertex
100
AcDb2dVertex
 10
77.31388
 20
5.707676
 30
0.0
  0
VERTEX
  5
106E
100
AcDbEntity
  8
ALPHA
100
AcDbVertex
100
AcDb2dVertex
 10
77.446786
 20
5.575056
 30
0.0
  0
VERTEX
  5
106F
100
AcDbEntity
  8
ALPHA
100
AcDbVertex
100
AcDb2dVertex
 10
77.567593
 20
5.428989
 30
0.0
  0
VERTEX
  5
1070
100
AcDbEntity
  8
ALPHA
100
AcDbVertex
100
AcDb2dVertex
 10
77.675362
 20
5.270471
 30
0.0
  0
VERTEX
  5
1071
100
AcDbEntity
  8
ALPHA
100
AcDbVertex
100
AcDb2dVertex
 10
77.769155
 20
5.100501
 30
0.0
  0
VERTEX
  5
1072
100
AcDbEntity
  8
ALPHA
100
AcDbVertex
100
AcDb2dVertex
 10
77.848033
 20
4.920076
 30
0.0
  0
VERTEX
  5
1073
100
AcDbEntity
  8
ALPHA
100
AcDbVertex
100
AcDb2dVertex
 10
77.911059
 20
4.730195
 30
0.0
  0
VERTEX
  5
1074
100
AcDbEntity
  8
ALPHA
100
AcDbVertex
100
AcDb2dVertex
 10
77.957294
 20
4.531854
 30
0.0
  0
VERTEX
  5
1075
100
AcDbEntity
  8
ALPHA
100
AcDbVertex
100
AcDb2dVertex
 10
77.9858
 20
4.326051
 30
0.0
  0
VERTEX
  5
1076
100
AcDbEntity
  8
ALPHA
100
AcDbVertex
100
AcDb2dVertex
 10
77.995639
 20
4.113785
 30
0.0
  0
VERTEX
  5
1077
100
AcDbEntity
  8
ALPHA
100
AcDbVertex
100
AcDb2dVertex
 10
77.99839
 20
1.032483
 30
0.0
  0
VERTEX
  5
1078
100
AcDbEntity
  8
ALPHA
100
AcDbVertex
100
AcDb2dVertex
 10
79.873898
 20
-0.116091
 30
0.0
  0
VERTEX
  5
1079
100
AcDbEntity
  8
ALPHA
100
AcDbVertex
100
AcDb2dVertex
 10
79.873898
 20
7.2316
 30
0.0
  0
VERTEX
  5
107A
100
AcDbEntity
  8
ALPHA
100
AcDbVertex
100
AcDb2dVertex
 10
77.99906
 20
7.731839
 30
0.0
  0
VERTEX
  5
107B
100
AcDbEntity
  8
ALPHA
100
AcDbVertex
100
AcDb2dVertex
 10
77.99906
 20
9.783735
 30
0.0
  0
SEQEND
  5
107C
100
AcDbEntity
  8
ALPHA
  0
POLYLINE
  5
107D
100
AcDbEntity
  8
ALPHA
100
AcDb2dPolyline
 66
     1
 10
0.0
 20
0.0
 30
0.0
  0
VERTEX
  5
107E
100
AcDbEntity
  8
ALPHA
100
AcDbVertex
100
AcDb2dVertex
 10
87.748709
 20
9.783735
 30
0.0
  0
VERTEX
  5
107F
100
AcDbEntity
  8
ALPHA
100
AcDbVertex
100
AcDb2dVertex
 10
87.748709
 20
7.731839
 30
0.0
  0
VERTEX
  5
1080
100
AcDbEntity
  8
ALPHA
100
AcDbVertex
100
AcDb2dVertex
 10
85.872496
 20
7.2316
 30
0.0
  0
VERTEX
  5
1081
100
AcDbEntity
  8
ALPHA
100
AcDbVertex
100
AcDb2dVertex
 10
85.872496
 20
-0.116091
 30
0.0
  0
VERTEX
  5
1082
100
AcDbEntity
  8
ALPHA
100
AcDbVertex
100
AcDb2dVertex
 10
87.748004
 20
1.032483
 30
0.0
  0
VERTEX
  5
1083
100
AcDbEntity
  8
ALPHA
100
AcDbVertex
100
AcDb2dVertex
 10
87.74938
 20
4.113785
 30
0.0
  0
VERTEX
  5
1084
100
AcDbEntity
  8
ALPHA
100
AcDbVertex
100
AcDb2dVertex
 10
87.759072
 20
4.326051
 30
0.0
  0
VERTEX
  5
1085
100
AcDbEntity
  8
ALPHA
100
AcDbVertex
100
AcDb2dVertex
 10
87.787518
 20
4.531854
 30
0.0
  0
VERTEX
  5
1086
100
AcDbEntity
  8
ALPHA
100
AcDbVertex
100
AcDb2dVertex
 10
87.833767
 20
4.730195
 30
0.0
  0
VERTEX
  5
1087
100
AcDbEntity
  8
ALPHA
100
AcDbVertex
100
AcDb2dVertex
 10
87.896872
 20
4.920077
 30
0.0
  0
VERTEX
  5
1088
100
AcDbEntity
  8
ALPHA
100
AcDbVertex
100
AcDb2dVertex
 10
87.975884
 20
5.100502
 30
0.0
  0
VERTEX
  5
1089
100
AcDbEntity
  8
ALPHA
100
AcDbVertex
100
AcDb2dVertex
 10
88.069853
 20
5.270472
 30
0.0
  0
VERTEX
  5
108A
100
AcDbEntity
  8
ALPHA
100
AcDbVertex
100
AcDb2dVertex
 10
88.177832
 20
5.428989
 30
0.0
  0
VERTEX
  5
108B
100
AcDbEntity
  8
ALPHA
100
AcDbVertex
100
AcDb2dVertex
 10
88.298871
 20
5.575057
 30
0.0
  0
VERTEX
  5
108C
100
AcDbEntity
  8
ALPHA
100
AcDbVertex
100
AcDb2dVertex
 10
88.432021
 20
5.707676
 30
0.0
  0
VERTEX
  5
108D
100
AcDbEntity
  8
ALPHA
100
AcDbVertex
100
AcDb2dVertex
 10
88.576335
 20
5.82585
 30
0.0
  0
VERTEX
  5
108E
100
AcDbEntity
  8
ALPHA
100
AcDbVertex
100
AcDb2dVertex
 10
88.730863
 20
5.928581
 30
0.0
  0
VERTEX
  5
108F
100
AcDbEntity
  8
ALPHA
100
AcDbVertex
100
AcDb2dVertex
 10
88.894657
 20
6.014871
 30
0.0
  0
VERTEX
  5
1090
100
AcDbEntity
  8
ALPHA
100
AcDbVertex
100
AcDb2dVertex
 10
89.066767
 20
6.083722
 30
0.0
  0
VERTEX
  5
1091
100
AcDbEntity
  8
ALPHA
100
AcDbVertex
100
AcDb2dVertex
 10
89.246245
 20
6.134136
 30
0.0
  0
VERTEX
  5
1092
100
AcDbEntity
  8
ALPHA
100
AcDbVertex
100
AcDb2dVertex
 10
89.432143
 20
6.165117
 30
0.0
  0
VERTEX
  5
1093
100
AcDbEntity
  8
ALPHA
100
AcDbVertex
100
AcDb2dVertex
 10
89.623512
 20
6.175665
 30
0.0
  0
VERTEX
  5
1094
100
AcDbEntity
  8
ALPHA
100
AcDbVertex
100
AcDb2dVertex
 10
89.814846
 20
6.165117
 30
0.0
  0
VERTEX
  5
1095
100
AcDbEntity
  8
ALPHA
100
AcDbVertex
100
AcDb2dVertex
 10
90.000648
 20
6.134136
 30
0.0
  0
VERTEX
  5
1096
100
AcDbEntity
  8
ALPHA
100
AcDbVertex
100
AcDb2dVertex
 10
90.179979
 20
6.083722
 30
0.0
  0
VERTEX
  5
1097
100
AcDbEntity
  8
ALPHA
100
AcDbVertex
100
AcDb2dVertex
 10
90.351903
 20
6.014871
 30
0.0
  0
VERTEX
  5
1098
100
AcDbEntity
  8
ALPHA
100
AcDbVertex
100
AcDb2dVertex
 10
90.515479
 20
5.928581
 30
0.0
  0
VERTEX
  5
1099
100
AcDbEntity
  8
ALPHA
100
AcDbVertex
100
AcDb2dVertex
 10
90.66977
 20
5.82585
 30
0.0
  0
VERTEX
  5
109A
100
AcDbEntity
  8
ALPHA
100
AcDbVertex
100
AcDb2dVertex
 10
90.813838
 20
5.707676
 30
0.0
  0
VERTEX
  5
109B
100
AcDbEntity
  8
ALPHA
100
AcDbVertex
100
AcDb2dVertex
 10
90.946745
 20
5.575056
 30
0.0
  0
VERTEX
  5
109C
100
AcDbEntity
  8
ALPHA
100
AcDbVertex
100
AcDb2dVertex
 10
91.067552
 20
5.428989
 30
0.0
  0
VERTEX
  5
109D
100
AcDbEntity
  8
ALPHA
100
AcDbVertex
100
AcDb2dVertex
 10
91.175321
 20
5.270471
 30
0.0
  0
VERTEX
  5
109E
100
AcDbEntity
  8
ALPHA
100
AcDbVertex
100
AcDb2dVertex
 10
91.269114
 20
5.100501
 30
0.0
  0
VERTEX
  5
109F
100
AcDbEntity
  8
ALPHA
100
AcDbVertex
100
AcDb2dVertex
 10
91.347992
 20
4.920076
 30
0.0
  0
VERTEX
  5
10A0
100
AcDbEntity
  8
ALPHA
100
AcDbVertex
100
AcDb2dVertex
 10
91.411018
 20
4.730195
 30
0.0
  0
VERTEX
  5
10A1
100
AcDbEntity
  8
ALPHA
100
AcDbVertex
100
AcDb2dVertex
 10
91.457253
 20
4.531854
 30
0.0
  0
VERTEX
  5
10A2
100
AcDbEntity
  8
ALPHA
100
AcDbVertex
100
AcDb2dVertex
 10
91.485759
 20
4.326051
 30
0.0
  0
VERTEX
  5
10A3
100
AcDbEntity
  8
ALPHA
100
AcDbVertex
100
AcDb2dVertex
 10
91.495597
 20
4.113785
 30
0.0
  0
VERTEX
  5
10A4
100
AcDbEntity
  8
ALPHA
100
AcDbVertex
100
AcDb2dVertex
 10
91.498349
 20
1.032483
 30
0.0
  0
VERTEX
  5
10A5
100
AcDbEntity
  8
ALPHA
100
AcDbVertex
100
AcDb2dVertex
 10
93.373857
 20
-0.116091
 30
0.0
  0
VERTEX
  5
10A6
100
AcDbEntity
  8
ALPHA
100
AcDbVertex
100
AcDb2dVertex
 10
93.373857
 20
7.2316
 30
0.0
  0
VERTEX
  5
10A7
100
AcDbEntity
  8
ALPHA
100
AcDbVertex
100
AcDb2dVertex
 10
91.499019
 20
7.731839
 30
0.0
  0
VERTEX
  5
10A8
100
AcDbEntity
  8
ALPHA
100
AcDbVertex
100
AcDb2dVertex
 10
91.499019
 20
9.783735
 30
0.0
  0
SEQEND
  5
10A9
100
AcDbEntity
  8
ALPHA
  0
POLYLINE
  5
10AA
100
AcDbEntity
  8
ALPHA
100
AcDb2dPolyline
 66
     1
 10
0.0
 20
0.0
 30
0.0
  0
VERTEX
  5
10AB
100
AcDbEntity
  8
ALPHA
100
AcDbVertex
100
AcDb2dVertex
 10
114.773745
 20
9.783735
 30
0.0
  0
VERTEX
  5
10AC
100
AcDbEntity
  8
ALPHA
100
AcDbVertex
100
AcDb2dVertex
 10
114.773745
 20
7.731839
 30
0.0
  0
VERTEX
  5
10AD
100
AcDbEntity
  8
ALPHA
100
AcDbVertex
100
AcDb2dVertex
 10
112.897532
 20
7.2316
 30
0.0
  0
VERTEX
  5
10AE
100
AcDbEntity
  8
ALPHA
100
AcDbVertex
100
AcDb2dVertex
 10
112.897532
 20
-0.116091
 30
0.0
  0
VERTEX
  5
10AF
100
AcDbEntity
  8
ALPHA
100
AcDbVertex
100
AcDb2dVertex
 10
114.773075
 20
1.032483
 30
0.0
  0
VERTEX
  5
10B0
100
AcDbEntity
  8
ALPHA
100
AcDbVertex
100
AcDb2dVertex
 10
114.77445
 20
4.113785
 30
0.0
  0
VERTEX
  5
10B1
100
AcDbEntity
  8
ALPHA
100
AcDbVertex
100
AcDb2dVertex
 10
114.784143
 20
4.326051
 30
0.0
  0
VERTEX
  5
10B2
100
AcDbEntity
  8
ALPHA
100
AcDbVertex
100
AcDb2dVertex
 10
114.812589
 20
4.531854
 30
0.0
  0
VERTEX
  5
10B3
100
AcDbEntity
  8
ALPHA
100
AcDbVertex
100
AcDb2dVertex
 10
114.858838
 20
4.730195
 30
0.0
  0
VERTEX
  5
10B4
100
AcDbEntity
  8
ALPHA
100
AcDbVertex
100
AcDb2dVertex
 10
114.921943
 20
4.920077
 30
0.0
  0
VERTEX
  5
10B5
100
AcDbEntity
  8
ALPHA
100
AcDbVertex
100
AcDb2dVertex
 10
115.000955
 20
5.100502
 30
0.0
  0
VERTEX
  5
10B6
100
AcDbEntity
  8
ALPHA
100
AcDbVertex
100
AcDb2dVertex
 10
115.094924
 20
5.270472
 30
0.0
  0
VERTEX
  5
10B7
100
AcDbEntity
  8
ALPHA
100
AcDbVertex
100
AcDb2dVertex
 10
115.202903
 20
5.428989
 30
0.0
  0
VERTEX
  5
10B8
100
AcDbEntity
  8
ALPHA
100
AcDbVertex
100
AcDb2dVertex
 10
115.323942
 20
5.575057
 30
0.0
  0
VERTEX
  5
10B9
100
AcDbEntity
  8
ALPHA
100
AcDbVertex
100
AcDb2dVertex
 10
115.457092
 20
5.707676
 30
0.0
  0
VERTEX
  5
10BA
100
AcDbEntity
  8
ALPHA
100
AcDbVertex
100
AcDb2dVertex
 10
115.601406
 20
5.82585
 30
0.0
  0
VERTEX
  5
10BB
100
AcDbEntity
  8
ALPHA
100
AcDbVertex
100
AcDb2dVertex
 10
115.755934
 20
5.928581
 30
0.0
  0
VERTEX
  5
10BC
100
AcDbEntity
  8
ALPHA
100
AcDbVertex
100
AcDb2dVertex
 10
115.919728
 20
6.014871
 30
0.0
  0
VERTEX
  5
10BD
100
AcDbEntity
  8
ALPHA
100
AcDbVertex
100
AcDb2dVertex
 10
116.091838
 20
6.083722
 30
0.0
  0
VERTEX
  5
10BE
100
AcDbEntity
  8
ALPHA
100
AcDbVertex
100
AcDb2dVertex
 10
116.271316
 20
6.134136
 30
0.0
  0
VERTEX
  5
10BF
100
AcDbEntity
  8
ALPHA
100
AcDbVertex
100
AcDb2dVertex
 10
116.457214
 20
6.165117
 30
0.0
  0
VERTEX
  5
10C0
100
AcDbEntity
  8
ALPHA
100
AcDbVertex
100
AcDb2dVertex
 10
116.648582
 20
6.175665
 30
0.0
  0
VERTEX
  5
10C1
100
AcDbEntity
  8
ALPHA
100
AcDbVertex
100
AcDb2dVertex
 10
116.83991
 20
6.165117
 30
0.0
  0
VERTEX
  5
10C2
100
AcDbEntity
  8
ALPHA
100
AcDbVertex
100
AcDb2dVertex
 10
117.025707
 20
6.134136
 30
0.0
  0
VERTEX
  5
10C3
100
AcDbEntity
  8
ALPHA
100
AcDbVertex
100
AcDb2dVertex
 10
117.205034
 20
6.083722
 30
0.0
  0
VERTEX
  5
10C4
100
AcDbEntity
  8
ALPHA
100
AcDbVertex
100
AcDb2dVertex
 10
117.376953
 20
6.014871
 30
0.0
  0
VERTEX
  5
10C5
100
AcDbEntity
  8
ALPHA
100
AcDbVertex
100
AcDb2dVertex
 10
117.540526
 20
5.928581
 30
0.0
  0
VERTEX
  5
10C6
100
AcDbEntity
  8
ALPHA
100
AcDbVertex
100
AcDb2dVertex
 10
117.694815
 20
5.82585
 30
0.0
  0
VERTEX
  5
10C7
100
AcDbEntity
  8
ALPHA
100
AcDbVertex
100
AcDb2dVertex
 10
117.83888
 20
5.707676
 30
0.0
  0
VERTEX
  5
10C8
100
AcDbEntity
  8
ALPHA
100
AcDbVertex
100
AcDb2dVertex
 10
117.971785
 20
5.575056
 30
0.0
  0
VERTEX
  5
10C9
100
AcDbEntity
  8
ALPHA
100
AcDbVertex
100
AcDb2dVertex
 10
118.092591
 20
5.428989
 30
0.0
  0
VERTEX
  5
10CA
100
AcDbEntity
  8
ALPHA
100
AcDbVertex
100
AcDb2dVertex
 10
118.200358
 20
5.270471
 30
0.0
  0
VERTEX
  5
10CB
100
AcDbEntity
  8
ALPHA
100
AcDbVertex
100
AcDb2dVertex
 10
118.29415
 20
5.100501
 30
0.0
  0
VERTEX
  5
10CC
100
AcDbEntity
  8
ALPHA
100
AcDbVertex
100
AcDb2dVertex
 10
118.373028
 20
4.920076
 30
0.0
  0
VERTEX
  5
10CD
100
AcDbEntity
  8
ALPHA
100
AcDbVertex
100
AcDb2dVertex
 10
118.436054
 20
4.730195
 30
0.0
  0
VERTEX
  5
10CE
100
AcDbEntity
  8
ALPHA
100
AcDbVertex
100
AcDb2dVertex
 10
118.482289
 20
4.531854
 30
0.0
  0
VERTEX
  5
10CF
100
AcDbEntity
  8
ALPHA
100
AcDbVertex
100
AcDb2dVertex
 10
118.510794
 20
4.326051
 30
0.0
  0
VERTEX
  5
10D0
100
AcDbEntity
  8
ALPHA
100
AcDbVertex
100
AcDb2dVertex
 10
118.520633
 20
4.113785
 30
0.0
  0
VERTEX
  5
10D1
100
AcDbEntity
  8
ALPHA
100
AcDbVertex
100
AcDb2dVertex
 10
118.523385
 20
1.032483
 30
0.0
  0
VERTEX
  5
10D2
100
AcDbEntity
  8
ALPHA
100
AcDbVertex
100
AcDb2dVertex
 10
120.398892
 20
-0.116091
 30
0.0
  0
VERTEX
  5
10D3
100
AcDbEntity
  8
ALPHA
100
AcDbVertex
100
AcDb2dVertex
 10
120.398892
 20
7.2316
 30
0.0
  0
VERTEX
  5
10D4
100
AcDbEntity
  8
ALPHA
100
AcDbVertex
100
AcDb2dVertex
 10
118.52409
 20
7.731839
 30
0.0
  0
VERTEX
  5
10D5
100
AcDbEntity
  8
ALPHA
100
AcDbVertex
100
AcDb2dVertex
 10
118.52409
 20
9.783735
 30
0.0
  0
SEQEND
  5
10D6
100
AcDbEntity
  8
ALPHA
  0
POLYLINE
  5
10D7
100
AcDbEntity
  8
ALPHA
100
AcDb2dPolyline
 66
     1
 10
0.0
 20
0.0
 30
0.0
  0
VERTEX
  5
10D8
100
AcDbEntity
  8
ALPHA
100
AcDbVertex
100
AcDb2dVertex
 10
128.248904
 20
9.783735
 30
0.0
  0
VERTEX
  5
10D9
100
AcDbEntity
  8
ALPHA
100
AcDbVertex
100
AcDb2dVertex
 10
128.248904
 20
7.731839
 30
0.0
  0
VERTEX
  5
10DA
100
AcDbEntity
  8
ALPHA
100
AcDbVertex
100
AcDb2dVertex
 10
126.37269
 20
7.2316
 30
0.0
  0
VERTEX
  5
10DB
100
AcDbEntity
  8
ALPHA
100
AcDbVertex
100
AcDb2dVertex
 10
126.37269
 20
-0.116091
 30
0.0
  0
VERTEX
  5
10DC
100
AcDbEntity
  8
ALPHA
100
AcDbVertex
100
AcDb2dVertex
 10
128.248198
 20
1.032483
 30
0.0
  0
VERTEX
  5
10DD
100
AcDbEntity
  8
ALPHA
100
AcDbVertex
100
AcDb2dVertex
 10
128.249574
 20
4.113785
 30
0.0
  0
VERTEX
  5
10DE
100
AcDbEntity
  8
ALPHA
100
AcDbVertex
100
AcDb2dVertex
 10
128.259266
 20
4.326051
 30
0.0
  0
VERTEX
  5
10DF
100
AcDbEntity
  8
ALPHA
100
AcDbVertex
100
AcDb2dVertex
 10
128.287712
 20
4.531854
 30
0.0
  0
VERTEX
  5
10E0
100
AcDbEntity
  8
ALPHA
100
AcDbVertex
100
AcDb2dVertex
 10
128.333961
 20
4.730195
 30
0.0
  0
VERTEX
  5
10E1
100
AcDbEntity
  8
ALPHA
100
AcDbVertex
100
AcDb2dVertex
 10
128.397066
 20
4.920077
 30
0.0
  0
VERTEX
  5
10E2
100
AcDbEntity
  8
ALPHA
100
AcDbVertex
100
AcDb2dVertex
 10
128.476078
 20
5.100502
 30
0.0
  0
VERTEX
  5
10E3
100
AcDbEntity
  8
ALPHA
100
AcDbVertex
100
AcDb2dVertex
 10
128.570047
 20
5.270472
 30
0.0
  0
VERTEX
  5
10E4
100
AcDbEntity
  8
ALPHA
100
AcDbVertex
100
AcDb2dVertex
 10
128.678026
 20
5.428989
 30
0.0
  0
VERTEX
  5
10E5
100
AcDbEntity
  8
ALPHA
100
AcDbVertex
100
AcDb2dVertex
 10
128.799065
 20
5.575057
 30
0.0
  0
VERTEX
  5
10E6
100
AcDbEntity
  8
ALPHA
100
AcDbVertex
100
AcDb2dVertex
 10
128.932216
 20
5.707676
 30
0.0
  0
VERTEX
  5
10E7
100
AcDbEntity
  8
ALPHA
100
AcDbVertex
100
AcDb2dVertex
 10
129.076529
 20
5.82585
 30
0.0
  0
VERTEX
  5
10E8
100
AcDbEntity
  8
ALPHA
100
AcDbVertex
100
AcDb2dVertex
 10
129.231057
 20
5.928581
 30
0.0
  0
VERTEX
  5
10E9
100
AcDbEntity
  8
ALPHA
100
AcDbVertex
100
AcDb2dVertex
 10
129.394851
 20
6.014871
 30
0.0
  0
VERTEX
  5
10EA
100
AcDbEntity
  8
ALPHA
100
AcDbVertex
100
AcDb2dVertex
 10
129.566961
 20
6.083722
 30
0.0
  0
VERTEX
  5
10EB
100
AcDbEntity
  8
ALPHA
100
AcDbVertex
100
AcDb2dVertex
 10
129.74644
 20
6.134136
 30
0.0
  0
VERTEX
  5
10EC
100
AcDbEntity
  8
ALPHA
100
AcDbVertex
100
AcDb2dVertex
 10
129.932337
 20
6.165117
 30
0.0
  0
VERTEX
  5
10ED
100
AcDbEntity
  8
ALPHA
100
AcDbVertex
100
AcDb2dVertex
 10
130.123706
 20
6.175665
 30
0.0
  0
VERTEX
  5
10EE
100
AcDbEntity
  8
ALPHA
100
AcDbVertex
100
AcDb2dVertex
 10
130.31504
 20
6.165117
 30
0.0
  0
VERTEX
  5
10EF
100
AcDbEntity
  8
ALPHA
100
AcDbVertex
100
AcDb2dVertex
 10
130.500842
 20
6.134136
 30
0.0
  0
VERTEX
  5
10F0
100
AcDbEntity
  8
ALPHA
100
AcDbVertex
100
AcDb2dVertex
 10
130.680174
 20
6.083722
 30
0.0
  0
VERTEX
  5
10F1
100
AcDbEntity
  8
ALPHA
100
AcDbVertex
100
AcDb2dVertex
 10
130.852097
 20
6.014871
 30
0.0
  0
VERTEX
  5
10F2
100
AcDbEntity
  8
ALPHA
100
AcDbVertex
100
AcDb2dVertex
 10
131.015673
 20
5.928581
 30
0.0
  0
VERTEX
  5
10F3
100
AcDbEntity
  8
ALPHA
100
AcDbVertex
100
AcDb2dVertex
 10
131.169965
 20
5.82585
 30
0.0
  0
VERTEX
  5
10F4
100
AcDbEntity
  8
ALPHA
100
AcDbVertex
100
AcDb2dVertex
 10
131.314033
 20
5.707676
 30
0.0
  0
VERTEX
  5
10F5
100
AcDbEntity
  8
ALPHA
100
AcDbVertex
100
AcDb2dVertex
 10
131.446939
 20
5.575056
 30
0.0
  0
VERTEX
  5
10F6
100
AcDbEntity
  8
ALPHA
100
AcDbVertex
100
AcDb2dVertex
 10
131.567746
 20
5.428989
 30
0.0
  0
VERTEX
  5
10F7
100
AcDbEntity
  8
ALPHA
100
AcDbVertex
100
AcDb2dVertex
 10
131.675515
 20
5.270471
 30
0.0
  0
VERTEX
  5
10F8
100
AcDbEntity
  8
ALPHA
100
AcDbVertex
100
AcDb2dVertex
 10
131.769308
 20
5.100501
 30
0.0
  0
VERTEX
  5
10F9
100
AcDbEntity
  8
ALPHA
100
AcDbVertex
100
AcDb2dVertex
 10
131.848186
 20
4.920076
 30
0.0
  0
VERTEX
  5
10FA
100
AcDbEntity
  8
ALPHA
100
AcDbVertex
100
AcDb2dVertex
 10
131.911212
 20
4.730195
 30
0.0
  0
VERTEX
  5
10FB
100
AcDbEntity
  8
ALPHA
100
AcDbVertex
100
AcDb2dVertex
 10
131.957447
 20
4.531854
 30
0.0
  0
VERTEX
  5
10FC
100
AcDbEntity
  8
ALPHA
100
AcDbVertex
100
AcDb2dVertex
 10
131.985953
 20
4.326051
 30
0.0
  0
VERTEX
  5
10FD
100
AcDbEntity
  8
ALPHA
100
AcDbVertex
100
AcDb2dVertex
 10
131.995792
 20
4.113785
 30
0.0
  0
VERTEX
  5
10FE
100
AcDbEntity
  8
ALPHA
100
AcDbVertex
100
AcDb2dVertex
 10
131.998543
 20
1.032483
 30
0.0
  0
VERTEX
  5
10FF
100
AcDbEntity
  8
ALPHA
100
AcDbVertex
100
AcDb2dVertex
 10
133.874051
 20
-0.116091
 30
0.0
  0
VERTEX
  5
1100
100
AcDbEntity
  8
ALPHA
100
AcDbVertex
100
AcDb2dVertex
 10
133.874051
 20
7.2316
 30
0.0
  0
VERTEX
  5
1101
100
AcDbEntity
  8
ALPHA
100
AcDbVertex
100
AcDb2dVertex
 10
131.999214
 20
7.731839
 30
0.0
  0
VERTEX
  5
1102
100
AcDbEntity
  8
ALPHA
100
AcDbVertex
100
AcDb2dVertex
 10
131.999214
 20
9.783735
 30
0.0
  0
SEQEND
  5
1103
100
AcDbEntity
  8
ALPHA
  0
POLYLINE
  5
1104
100
AcDbEntity
  8
ALPHA
100
AcDb2dPolyline
 66
     1
 10
0.0
 20
0.0
 30
0.0
  0
VERTEX
  5
1105
100
AcDbEntity
  8
ALPHA
100
AcDbVertex
100
AcDb2dVertex
 10
141.748827
 20
9.783735
 30
0.0
  0
VERTEX
  5
1106
100
AcDbEntity
  8
ALPHA
100
AcDbVertex
100
AcDb2dVertex
 10
141.748827
 20
7.731839
 30
0.0
  0
VERTEX
  5
1107
100
AcDbEntity
  8
ALPHA
100
AcDbVertex
100
AcDb2dVertex
 10
139.872649
 20
7.2316
 30
0.0
  0
VERTEX
  5
1108
100
AcDbEntity
  8
ALPHA
100
AcDbVertex
100
AcDb2dVertex
 10
139.872649
 20
-0.116091
 30
0.0
  0
VERTEX
  5
1109
100
AcDbEntity
  8
ALPHA
100
AcDbVertex
100
AcDb2dVertex
 10
141.748157
 20
1.032483
 30
0.0
  0
VERTEX
  5
110A
100
AcDbEntity
  8
ALPHA
100
AcDbVertex
100
AcDb2dVertex
 10
141.749533
 20
4.113785
 30
0.0
  0
VERTEX
  5
110B
100
AcDbEntity
  8
ALPHA
100
AcDbVertex
100
AcDb2dVertex
 10
141.759225
 20
4.326051
 30
0.0
  0
VERTEX
  5
110C
100
AcDbEntity
  8
ALPHA
100
AcDbVertex
100
AcDb2dVertex
 10
141.787671
 20
4.531854
 30
0.0
  0
VERTEX
  5
110D
100
AcDbEntity
  8
ALPHA
100
AcDbVertex
100
AcDb2dVertex
 10
141.83392
 20
4.730195
 30
0.0
  0
VERTEX
  5
110E
100
AcDbEntity
  8
ALPHA
100
AcDbVertex
100
AcDb2dVertex
 10
141.897025
 20
4.920077
 30
0.0
  0
VERTEX
  5
110F
100
AcDbEntity
  8
ALPHA
100
AcDbVertex
100
AcDb2dVertex
 10
141.976037
 20
5.100502
 30
0.0
  0
VERTEX
  5
1110
100
AcDbEntity
  8
ALPHA
100
AcDbVertex
100
AcDb2dVertex
 10
142.070006
 20
5.270472
 30
0.0
  0
VERTEX
  5
1111
100
AcDbEntity
  8
ALPHA
100
AcDbVertex
100
AcDb2dVertex
 10
142.177985
 20
5.428989
 30
0.0
  0
VERTEX
  5
1112
100
AcDbEntity
  8
ALPHA
100
AcDbVertex
100
AcDb2dVertex
 10
142.299024
 20
5.575057
 30
0.0
  0
VERTEX
  5
1113
100
AcDbEntity
  8
ALPHA
100
AcDbVertex
100
AcDb2dVertex
 10
142.432175
 20
5.707676
 30
0.0
  0
VERTEX
  5
1114
100
AcDbEntity
  8
ALPHA
100
AcDbVertex
100
AcDb2dVertex
 10
142.576488
 20
5.82585
 30
0.0
  0
VERTEX
  5
1115
100
AcDbEntity
  8
ALPHA
100
AcDbVertex
100
AcDb2dVertex
 10
142.731016
 20
5.928581
 30
0.0
  0
VERTEX
  5
1116
100
AcDbEntity
  8
ALPHA
100
AcDbVertex
100
AcDb2dVertex
 10
142.89481
 20
6.014871
 30
0.0
  0
VERTEX
  5
1117
100
AcDbEntity
  8
ALPHA
100
AcDbVertex
100
AcDb2dVertex
 10
143.06692
 20
6.083722
 30
0.0
  0
VERTEX
  5
1118
100
AcDbEntity
  8
ALPHA
100
AcDbVertex
100
AcDb2dVertex
 10
143.246399
 20
6.134136
 30
0.0
  0
VERTEX
  5
1119
100
AcDbEntity
  8
ALPHA
100
AcDbVertex
100
AcDb2dVertex
 10
143.432296
 20
6.165117
 30
0.0
  0
VERTEX
  5
111A
100
AcDbEntity
  8
ALPHA
100
AcDbVertex
100
AcDb2dVertex
 10
143.623665
 20
6.175665
 30
0.0
  0
VERTEX
  5
111B
100
AcDbEntity
  8
ALPHA
100
AcDbVertex
100
AcDb2dVertex
 10
143.814998
 20
6.165117
 30
0.0
  0
VERTEX
  5
111C
100
AcDbEntity
  8
ALPHA
100
AcDbVertex
100
AcDb2dVertex
 10
144.000799
 20
6.134136
 30
0.0
  0
VERTEX
  5
111D
100
AcDbEntity
  8
ALPHA
100
AcDbVertex
100
AcDb2dVertex
 10
144.180128
 20
6.083722
 30
0.0
  0
VERTEX
  5
111E
100
AcDbEntity
  8
ALPHA
100
AcDbVertex
100
AcDb2dVertex
 10
144.352048
 20
6.014871
 30
0.0
  0
VERTEX
  5
111F
100
AcDbEntity
  8
ALPHA
100
AcDbVertex
100
AcDb2dVertex
 10
144.515621
 20
5.928581
 30
0.0
  0
VERTEX
  5
1120
100
AcDbEntity
  8
ALPHA
100
AcDbVertex
100
AcDb2dVertex
 10
144.669909
 20
5.82585
 30
0.0
  0
VERTEX
  5
1121
100
AcDbEntity
  8
ALPHA
100
AcDbVertex
100
AcDb2dVertex
 10
144.813973
 20
5.707676
 30
0.0
  0
VERTEX
  5
1122
100
AcDbEntity
  8
ALPHA
100
AcDbVertex
100
AcDb2dVertex
 10
144.946876
 20
5.575056
 30
0.0
  0
VERTEX
  5
1123
100
AcDbEntity
  8
ALPHA
100
AcDbVertex
100
AcDb2dVertex
 10
145.067679
 20
5.428989
 30
0.0
  0
VERTEX
  5
1124
100
AcDbEntity
  8
ALPHA
100
AcDbVertex
100
AcDb2dVertex
 10
145.175444
 20
5.270471
 30
0.0
  0
VERTEX
  5
1125
100
AcDbEntity
  8
ALPHA
100
AcDbVertex
100
AcDb2dVertex
 10
145.269234
 20
5.100501
 30
0.0
  0
VERTEX
  5
1126
100
AcDbEntity
  8
ALPHA
100
AcDbVertex
100
AcDb2dVertex
 10
145.34811
 20
4.920076
 30
0.0
  0
VERTEX
  5
1127
100
AcDbEntity
  8
ALPHA
100
AcDbVertex
100
AcDb2dVertex
 10
145.411134
 20
4.730195
 30
0.0
  0
VERTEX
  5
1128
100
AcDbEntity
  8
ALPHA
100
AcDbVertex
100
AcDb2dVertex
 10
145.457369
 20
4.531854
 30
0.0
  0
VERTEX
  5
1129
100
AcDbEntity
  8
ALPHA
100
AcDbVertex
100
AcDb2dVertex
 10
145.485875
 20
4.326051
 30
0.0
  0
VERTEX
  5
112A
100
AcDbEntity
  8
ALPHA
100
AcDbVertex
100
AcDb2dVertex
 10
145.495715
 20
4.113785
 30
0.0
  0
VERTEX
  5
112B
100
AcDbEntity
  8
ALPHA
100
AcDbVertex
100
AcDb2dVertex
 10
145.498502
 20
1.032483
 30
0.0
  0
VERTEX
  5
112C
100
AcDbEntity
  8
ALPHA
100
AcDbVertex
100
AcDb2dVertex
 10
147.37401
 20
-0.116091
 30
0.0
  0
VERTEX
  5
112D
100
AcDbEntity
  8
ALPHA
100
AcDbVertex
100
AcDb2dVertex
 10
147.37401
 20
7.2316
 30
0.0
  0
VERTEX
  5
112E
100
AcDbEntity
  8
ALPHA
100
AcDbVertex
100
AcDb2dVertex
 10
145.499172
 20
7.731839
 30
0.0
  0
VERTEX
  5
112F
100
AcDbEntity
  8
ALPHA
100
AcDbVertex
100
AcDb2dVertex
 10
145.499172
 20
9.783735
 30
0.0
  0
SEQEND
  5
1130
100
AcDbEntity
  8
ALPHA
  0
POLYLINE
  5
1131
100
AcDbEntity
  8
ALPHA
100
AcDb2dPolyline
 66
     1
 10
0.0
 20
0.0
 30
0.0
  0
VERTEX
  5
1132
100
AcDbEntity
  8
ALPHA
100
AcDbVertex
100
AcDb2dVertex
 10
168.773898
 20
9.783735
 30
0.0
  0
VERTEX
  5
1133
100
AcDbEntity
  8
ALPHA
100
AcDbVertex
100
AcDb2dVertex
 10
168.773898
 20
7.731839
 30
0.0
  0
VERTEX
  5
1134
100
AcDbEntity
  8
ALPHA
100
AcDbVertex
100
AcDb2dVertex
 10
166.897685
 20
7.2316
 30
0.0
  0
VERTEX
  5
1135
100
AcDbEntity
  8
ALPHA
100
AcDbVertex
100
AcDb2dVertex
 10
166.897685
 20
-0.116091
 30
0.0
  0
VERTEX
  5
1136
100
AcDbEntity
  8
ALPHA
100
AcDbVertex
100
AcDb2dVertex
 10
168.773192
 20
1.032483
 30
0.0
  0
VERTEX
  5
1137
100
AcDbEntity
  8
ALPHA
100
AcDbVertex
100
AcDb2dVertex
 10
168.774568
 20
4.113785
 30
0.0
  0
VERTEX
  5
1138
100
AcDbEntity
  8
ALPHA
100
AcDbVertex
100
AcDb2dVertex
 10
168.784261
 20
4.326051
 30
0.0
  0
VERTEX
  5
1139
100
AcDbEntity
  8
ALPHA
100
AcDbVertex
100
AcDb2dVertex
 10
168.812708
 20
4.531854
 30
0.0
  0
VERTEX
  5
113A
100
AcDbEntity
  8
ALPHA
100
AcDbVertex
100
AcDb2dVertex
 10
168.858959
 20
4.730195
 30
0.0
  0
VERTEX
  5
113B
100
AcDbEntity
  8
ALPHA
100
AcDbVertex
100
AcDb2dVertex
 10
168.922066
 20
4.920077
 30
0.0
  0
VERTEX
  5
113C
100
AcDbEntity
  8
ALPHA
100
AcDbVertex
100
AcDb2dVertex
 10
169.001079
 20
5.100502
 30
0.0
  0
VERTEX
  5
113D
100
AcDbEntity
  8
ALPHA
100
AcDbVertex
100
AcDb2dVertex
 10
169.095051
 20
5.270472
 30
0.0
  0
VERTEX
  5
113E
100
AcDbEntity
  8
ALPHA
100
AcDbVertex
100
AcDb2dVertex
 10
169.203032
 20
5.428989
 30
0.0
  0
VERTEX
  5
113F
100
AcDbEntity
  8
ALPHA
100
AcDbVertex
100
AcDb2dVertex
 10
169.324073
 20
5.575057
 30
0.0
  0
VERTEX
  5
1140
100
AcDbEntity
  8
ALPHA
100
AcDbVertex
100
AcDb2dVertex
 10
169.457225
 20
5.707676
 30
0.0
  0
VERTEX
  5
1141
100
AcDbEntity
  8
ALPHA
100
AcDbVertex
100
AcDb2dVertex
 10
169.601539
 20
5.82585
 30
0.0
  0
VERTEX
  5
1142
100
AcDbEntity
  8
ALPHA
100
AcDbVertex
100
AcDb2dVertex
 10
169.756067
 20
5.928581
 30
0.0
  0
VERTEX
  5
1143
100
AcDbEntity
  8
ALPHA
100
AcDbVertex
100
AcDb2dVertex
 10
169.91986
 20
6.014871
 30
0.0
  0
VERTEX
  5
1144
100
AcDbEntity
  8
ALPHA
100
AcDbVertex
100
AcDb2dVertex
 10
170.091969
 20
6.083722
 30
0.0
  0
VERTEX
  5
1145
100
AcDbEntity
  8
ALPHA
100
AcDbVertex
100
AcDb2dVertex
 10
170.271444
 20
6.134136
 30
0.0
  0
VERTEX
  5
1146
100
AcDbEntity
  8
ALPHA
100
AcDbVertex
100
AcDb2dVertex
 10
170.457338
 20
6.165117
 30
0.0
  0
VERTEX
  5
1147
100
AcDbEntity
  8
ALPHA
100
AcDbVertex
100
AcDb2dVertex
 10
170.6487
 20
6.175665
 30
0.0
  0
VERTEX
  5
1148
100
AcDbEntity
  8
ALPHA
100
AcDbVertex
100
AcDb2dVertex
 10
170.840034
 20
6.165117
 30
0.0
  0
VERTEX
  5
1149
100
AcDbEntity
  8
ALPHA
100
AcDbVertex
100
AcDb2dVertex
 10
171.025836
 20
6.134136
 30
0.0
  0
VERTEX
  5
114A
100
AcDbEntity
  8
ALPHA
100
AcDbVertex
100
AcDb2dVertex
 10
171.205168
 20
6.083722
 30
0.0
  0
VERTEX
  5
114B
100
AcDbEntity
  8
ALPHA
100
AcDbVertex
100
AcDb2dVertex
 10
171.377091
 20
6.014871
 30
0.0
  0
VERTEX
  5
114C
100
AcDbEntity
  8
ALPHA
100
AcDbVertex
100
AcDb2dVertex
 10
171.540668
 20
5.928581
 30
0.0
  0
VERTEX
  5
114D
100
AcDbEntity
  8
ALPHA
100
AcDbVertex
100
AcDb2dVertex
 10
171.694959
 20
5.82585
 30
0.0
  0
VERTEX
  5
114E
100
AcDbEntity
  8
ALPHA
100
AcDbVertex
100
AcDb2dVertex
 10
171.839027
 20
5.707676
 30
0.0
  0
VERTEX
  5
114F
100
AcDbEntity
  8
ALPHA
100
AcDbVertex
100
AcDb2dVertex
 10
171.971934
 20
5.575056
 30
0.0
  0
VERTEX
  5
1150
100
AcDbEntity
  8
ALPHA
100
AcDbVertex
100
AcDb2dVertex
 10
172.092741
 20
5.428989
 30
0.0
  0
VERTEX
  5
1151
100
AcDbEntity
  8
ALPHA
100
AcDbVertex
100
AcDb2dVertex
 10
172.20051
 20
5.270471
 30
0.0
  0
VERTEX
  5
1152
100
AcDbEntity
  8
ALPHA
100
AcDbVertex
100
AcDb2dVertex
 10
172.294302
 20
5.100501
 30
0.0
  0
VERTEX
  5
1153
100
AcDbEntity
  8
ALPHA
100
AcDbVertex
100
AcDb2dVertex
 10
172.373181
 20
4.920076
 30
0.0
  0
VERTEX
  5
1154
100
AcDbEntity
  8
ALPHA
100
AcDbVertex
100
AcDb2dVertex
 10
172.436207
 20
4.730195
 30
0.0
  0
VERTEX
  5
1155
100
AcDbEntity
  8
ALPHA
100
AcDbVertex
100
AcDb2dVertex
 10
172.482442
 20
4.531854
 30
0.0
  0
VERTEX
  5
1156
100
AcDbEntity
  8
ALPHA
100
AcDbVertex
100
AcDb2dVertex
 10
172.510947
 20
4.326051
 30
0.0
  0
VERTEX
  5
1157
100
AcDbEntity
  8
ALPHA
100
AcDbVertex
100
AcDb2dVertex
 10
172.520786
 20
4.113785
 30
0.0
  0
VERTEX
  5
1158
100
AcDbEntity
  8
ALPHA
100
AcDbVertex
100
AcDb2dVertex
 10
172.523538
 20
1.032483
 30
0.0
  0
VERTEX
  5
1159
100
AcDbEntity
  8
ALPHA
100
AcDbVertex
100
AcDb2dVertex
 10
174.399045
 20
-0.116091
 30
0.0
  0
VERTEX
  5
115A
100
AcDbEntity
  8
ALPHA
100
AcDbVertex
100
AcDb2dVertex
 10
174.399045
 20
7.2316
 30
0.0
  0
VERTEX
  5
115B
100
AcDbEntity
  8
ALPHA
100
AcDbVertex
100
AcDb2dVertex
 10
172.524243
 20
7.731839
 30
0.0
  0
VERTEX
  5
115C
100
AcDbEntity
  8
ALPHA
100
AcDbVertex
100
AcDb2dVertex
 10
172.524243
 20
9.783735
 30
0.0
  0
SEQEND
  5
115D
100
AcDbEntity
  8
ALPHA
  0
POLYLINE
  5
115E
100
AcDbEntity
  8
ALPHA
100
AcDb2dPolyline
 66
     1
 10
0.0
 20
0.0
 30
0.0
  0
VERTEX
  5
115F
100
AcDbEntity
  8
ALPHA
100
AcDbVertex
100
AcDb2dVertex
 10
182.249057
 20
9.783735
 30
0.0
  0
VERTEX
  5
1160
100
AcDbEntity
  8
ALPHA
100
AcDbVertex
100
AcDb2dVertex
 10
182.249057
 20
7.731839
 30
0.0
  0
VERTEX
  5
1161
100
AcDbEntity
  8
ALPHA
100
AcDbVertex
100
AcDb2dVertex
 10
180.372843
 20
7.2316
 30
0.0
  0
VERTEX
  5
1162
100
AcDbEntity
  8
ALPHA
100
AcDbVertex
100
AcDb2dVertex
 10
180.372843
 20
-0.116091
 30
0.0
  0
VERTEX
  5
1163
100
AcDbEntity
  8
ALPHA
100
AcDbVertex
100
AcDb2dVertex
 10
182.248351
 20
1.032483
 30
0.0
  0
VERTEX
  5
1164
100
AcDbEntity
  8
ALPHA
100
AcDbVertex
100
AcDb2dVertex
 10
182.249727
 20
4.113785
 30
0.0
  0
VERTEX
  5
1165
100
AcDbEntity
  8
ALPHA
100
AcDbVertex
100
AcDb2dVertex
 10
182.25942
 20
4.326051
 30
0.0
  0
VERTEX
  5
1166
100
AcDbEntity
  8
ALPHA
100
AcDbVertex
100
AcDb2dVertex
 10
182.287865
 20
4.531854
 30
0.0
  0
VERTEX
  5
1167
100
AcDbEntity
  8
ALPHA
100
AcDbVertex
100
AcDb2dVertex
 10
182.334115
 20
4.730195
 30
0.0
  0
VERTEX
  5
1168
100
AcDbEntity
  8
ALPHA
100
AcDbVertex
100
AcDb2dVertex
 10
182.397219
 20
4.920077
 30
0.0
  0
VERTEX
  5
1169
100
AcDbEntity
  8
ALPHA
100
AcDbVertex
100
AcDb2dVertex
 10
182.476231
 20
5.100502
 30
0.0
  0
VERTEX
  5
116A
100
AcDbEntity
  8
ALPHA
100
AcDbVertex
100
AcDb2dVertex
 10
182.5702
 20
5.270472
 30
0.0
  0
VERTEX
  5
116B
100
AcDbEntity
  8
ALPHA
100
AcDbVertex
100
AcDb2dVertex
 10
182.678179
 20
5.428989
 30
0.0
  0
VERTEX
  5
116C
100
AcDbEntity
  8
ALPHA
100
AcDbVertex
100
AcDb2dVertex
 10
182.799218
 20
5.575057
 30
0.0
  0
VERTEX
  5
116D
100
AcDbEntity
  8
ALPHA
100
AcDbVertex
100
AcDb2dVertex
 10
182.932369
 20
5.707676
 30
0.0
  0
VERTEX
  5
116E
100
AcDbEntity
  8
ALPHA
100
AcDbVertex
100
AcDb2dVertex
 10
183.076682
 20
5.82585
 30
0.0
  0
VERTEX
  5
116F
100
AcDbEntity
  8
ALPHA
100
AcDbVertex
100
AcDb2dVertex
 10
183.23121
 20
5.928581
 30
0.0
  0
VERTEX
  5
1170
100
AcDbEntity
  8
ALPHA
100
AcDbVertex
100
AcDb2dVertex
 10
183.395004
 20
6.014871
 30
0.0
  0
VERTEX
  5
1171
100
AcDbEntity
  8
ALPHA
100
AcDbVertex
100
AcDb2dVertex
 10
183.567114
 20
6.083722
 30
0.0
  0
VERTEX
  5
1172
100
AcDbEntity
  8
ALPHA
100
AcDbVertex
100
AcDb2dVertex
 10
183.746593
 20
6.134136
 30
0.0
  0
VERTEX
  5
1173
100
AcDbEntity
  8
ALPHA
100
AcDbVertex
100
AcDb2dVertex
 10
183.93249
 20
6.165117
 30
0.0
  0
VERTEX
  5
1174
100
AcDbEntity
  8
ALPHA
100
AcDbVertex
100
AcDb2dVertex
 10
184.123859
 20
6.175665
 30
0.0
  0
VERTEX
  5
1175
100
AcDbEntity
  8
ALPHA
100
AcDbVertex
100
AcDb2dVertex
 10
184.315193
 20
6.165117
 30
0.0
  0
VERTEX
  5
1176
100
AcDbEntity
  8
ALPHA
100
AcDbVertex
100
AcDb2dVertex
 10
184.500995
 20
6.134136
 30
0.0
  0
VERTEX
  5
1177
100
AcDbEntity
  8
ALPHA
100
AcDbVertex
100
AcDb2dVertex
 10
184.680327
 20
6.083722
 30
0.0
  0
VERTEX
  5
1178
100
AcDbEntity
  8
ALPHA
100
AcDbVertex
100
AcDb2dVertex
 10
184.85225
 20
6.014871
 30
0.0
  0
VERTEX
  5
1179
100
AcDbEntity
  8
ALPHA
100
AcDbVertex
100
AcDb2dVertex
 10
185.015826
 20
5.928581
 30
0.0
  0
VERTEX
  5
117A
100
AcDbEntity
  8
ALPHA
100
AcDbVertex
100
AcDb2dVertex
 10
185.170118
 20
5.82585
 30
0.0
  0
VERTEX
  5
117B
100
AcDbEntity
  8
ALPHA
100
AcDbVertex
100
AcDb2dVertex
 10
185.314186
 20
5.707676
 30
0.0
  0
VERTEX
  5
117C
100
AcDbEntity
  8
ALPHA
100
AcDbVertex
100
AcDb2dVertex
 10
185.447092
 20
5.575056
 30
0.0
  0
VERTEX
  5
117D
100
AcDbEntity
  8
ALPHA
100
AcDbVertex
100
AcDb2dVertex
 10
185.567899
 20
5.428989
 30
0.0
  0
VERTEX
  5
117E
100
AcDbEntity
  8
ALPHA
100
AcDbVertex
100
AcDb2dVertex
 10
185.675668
 20
5.270471
 30
0.0
  0
VERTEX
  5
117F
100
AcDbEntity
  8
ALPHA
100
AcDbVertex
100
AcDb2dVertex
 10
185.769461
 20
5.100501
 30
0.0
  0
VERTEX
  5
1180
100
AcDbEntity
  8
ALPHA
100
AcDbVertex
100
AcDb2dVertex
 10
185.848339
 20
4.920076
 30
0.0
  0
VERTEX
  5
1181
100
AcDbEntity
  8
ALPHA
100
AcDbVertex
100
AcDb2dVertex
 10
185.911365
 20
4.730195
 30
0.0
  0
VERTEX
  5
1182
100
AcDbEntity
  8
ALPHA
100
AcDbVertex
100
AcDb2dVertex
 10
185.9576
 20
4.531854
 30
0.0
  0
VERTEX
  5
1183
100
AcDbEntity
  8
ALPHA
100
AcDbVertex
100
AcDb2dVertex
 10
185.986106
 20
4.326051
 30
0.0
  0
VERTEX
  5
1184
100
AcDbEntity
  8
ALPHA
100
AcDbVertex
100
AcDb2dVertex
 10
185.995945
 20
4.113785
 30
0.0
  0
VERTEX
  5
1185
100
AcDbEntity
  8
ALPHA
100
AcDbVertex
100
AcDb2dVertex
 10
185.998696
 20
1.032483
 30
0.0
  0
VERTEX
  5
1186
100
AcDbEntity
  8
ALPHA
100
AcDbVertex
100
AcDb2dVertex
 10
187.874204
 20
-0.116091
 30
0.0
  0
VERTEX
  5
1187
100
AcDbEntity
  8
ALPHA
100
AcDbVertex
100
AcDb2dVertex
 10
187.874204
 20
7.2316
 30
0.0
  0
VERTEX
  5
1188
100
AcDbEntity
  8
ALPHA
100
AcDbVertex
100
AcDb2dVertex
 10
185.999367
 20
7.731839
 30
0.0
  0
VERTEX
  5
1189
100
AcDbEntity
  8
ALPHA
100
AcDbVertex
100
AcDb2dVertex
 10
185.999367
 20
9.783735
 30
0.0
  0
SEQEND
  5
118A
100
AcDbEntity
  8
ALPHA
  0
POLYLINE
  5
118B
100
AcDbEntity
  8
ALPHA
100
AcDb2dPolyline
 66
     1
 10
0.0
 20
0.0
 30
0.0
  0
VERTEX
  5
118C
100
AcDbEntity
  8
ALPHA
100
AcDbVertex
100
AcDb2dVertex
 10
195.74898
 20
9.783735
 30
0.0
  0
VERTEX
  5
118D
100
AcDbEntity
  8
ALPHA
100
AcDbVertex
100
AcDb2dVertex
 10
195.74898
 20
7.731839
 30
0.0
  0
VERTEX
  5
118E
100
AcDbEntity
  8
ALPHA
100
AcDbVertex
100
AcDb2dVertex
 10
193.872802
 20
7.2316
 30
0.0
  0
VERTEX
  5
118F
100
AcDbEntity
  8
ALPHA
100
AcDbVertex
100
AcDb2dVertex
 10
193.872802
 20
-0.116091
 30
0.0
  0
VERTEX
  5
1190
100
AcDbEntity
  8
ALPHA
100
AcDbVertex
100
AcDb2dVertex
 10
195.74831
 20
1.032483
 30
0.0
  0
VERTEX
  5
1191
100
AcDbEntity
  8
ALPHA
100
AcDbVertex
100
AcDb2dVertex
 10
195.749686
 20
4.113785
 30
0.0
  0
VERTEX
  5
1192
100
AcDbEntity
  8
ALPHA
100
AcDbVertex
100
AcDb2dVertex
 10
195.759378
 20
4.326051
 30
0.0
  0
VERTEX
  5
1193
100
AcDbEntity
  8
ALPHA
100
AcDbVertex
100
AcDb2dVertex
 10
195.787824
 20
4.531854
 30
0.0
  0
VERTEX
  5
1194
100
AcDbEntity
  8
ALPHA
100
AcDbVertex
100
AcDb2dVertex
 10
195.834073
 20
4.730195
 30
0.0
  0
VERTEX
  5
1195
100
AcDbEntity
  8
ALPHA
100
AcDbVertex
100
AcDb2dVertex
 10
195.897178
 20
4.920077
 30
0.0
  0
VERTEX
  5
1196
100
AcDbEntity
  8
ALPHA
100
AcDbVertex
100
AcDb2dVertex
 10
195.97619
 20
5.100502
 30
0.0
  0
VERTEX
  5
1197
100
AcDbEntity
  8
ALPHA
100
AcDbVertex
100
AcDb2dVertex
 10
196.070159
 20
5.270472
 30
0.0
  0
VERTEX
  5
1198
100
AcDbEntity
  8
ALPHA
100
AcDbVertex
100
AcDb2dVertex
 10
196.178138
 20
5.428989
 30
0.0
  0
VERTEX
  5
1199
100
AcDbEntity
  8
ALPHA
100
AcDbVertex
100
AcDb2dVertex
 10
196.299177
 20
5.575057
 30
0.0
  0
VERTEX
  5
119A
100
AcDbEntity
  8
ALPHA
100
AcDbVertex
100
AcDb2dVertex
 10
196.432328
 20
5.707676
 30
0.0
  0
VERTEX
  5
119B
100
AcDbEntity
  8
ALPHA
100
AcDbVertex
100
AcDb2dVertex
 10
196.576641
 20
5.82585
 30
0.0
  0
VERTEX
  5
119C
100
AcDbEntity
  8
ALPHA
100
AcDbVertex
100
AcDb2dVertex
 10
196.731169
 20
5.928581
 30
0.0
  0
VERTEX
  5
119D
100
AcDbEntity
  8
ALPHA
100
AcDbVertex
100
AcDb2dVertex
 10
196.894963
 20
6.014871
 30
0.0
  0
VERTEX
  5
119E
100
AcDbEntity
  8
ALPHA
100
AcDbVertex
100
AcDb2dVertex
 10
197.067073
 20
6.083722
 30
0.0
  0
VERTEX
  5
119F
100
AcDbEntity
  8
ALPHA
100
AcDbVertex
100
AcDb2dVertex
 10
197.246552
 20
6.134136
 30
0.0
  0
VERTEX
  5
11A0
100
AcDbEntity
  8
ALPHA
100
AcDbVertex
100
AcDb2dVertex
 10
197.432449
 20
6.165117
 30
0.0
  0
VERTEX
  5
11A1
100
AcDbEntity
  8
ALPHA
100
AcDbVertex
100
AcDb2dVertex
 10
197.623818
 20
6.175665
 30
0.0
  0
VERTEX
  5
11A2
100
AcDbEntity
  8
ALPHA
100
AcDbVertex
100
AcDb2dVertex
 10
197.815151
 20
6.165117
 30
0.0
  0
VERTEX
  5
11A3
100
AcDbEntity
  8
ALPHA
100
AcDbVertex
100
AcDb2dVertex
 10
198.000952
 20
6.134136
 30
0.0
  0
VERTEX
  5
11A4
100
AcDbEntity
  8
ALPHA
100
AcDbVertex
100
AcDb2dVertex
 10
198.180282
 20
6.083722
 30
0.0
  0
VERTEX
  5
11A5
100
AcDbEntity
  8
ALPHA
100
AcDbVertex
100
AcDb2dVertex
 10
198.352203
 20
6.014871
 30
0.0
  0
VERTEX
  5
11A6
100
AcDbEntity
  8
ALPHA
100
AcDbVertex
100
AcDb2dVertex
 10
198.515777
 20
5.928581
 30
0.0
  0
VERTEX
  5
11A7
100
AcDbEntity
  8
ALPHA
100
AcDbVertex
100
AcDb2dVertex
 10
198.670065
 20
5.82585
 30
0.0
  0
VERTEX
  5
11A8
100
AcDbEntity
  8
ALPHA
100
AcDbVertex
100
AcDb2dVertex
 10
198.81413
 20
5.707676
 30
0.0
  0
VERTEX
  5
11A9
100
AcDbEntity
  8
ALPHA
100
AcDbVertex
100
AcDb2dVertex
 10
198.947034
 20
5.575056
 30
0.0
  0
VERTEX
  5
11AA
100
AcDbEntity
  8
ALPHA
100
AcDbVertex
100
AcDb2dVertex
 10
199.067837
 20
5.428989
 30
0.0
  0
VERTEX
  5
11AB
100
AcDbEntity
  8
ALPHA
100
AcDbVertex
100
AcDb2dVertex
 10
199.175603
 20
5.270471
 30
0.0
  0
VERTEX
  5
11AC
100
AcDbEntity
  8
ALPHA
100
AcDbVertex
100
AcDb2dVertex
 10
199.269393
 20
5.100501
 30
0.0
  0
VERTEX
  5
11AD
100
AcDbEntity
  8
ALPHA
100
AcDbVertex
100
AcDb2dVertex
 10
199.348269
 20
4.920076
 30
0.0
  0
VERTEX
  5
11AE
100
AcDbEntity
  8
ALPHA
100
AcDbVertex
100
AcDb2dVertex
 10
199.411292
 20
4.730195
 30
0.0
  0
VERTEX
  5
11AF
100
AcDbEntity
  8
ALPHA
100
AcDbVertex
100
AcDb2dVertex
 10
199.457525
 20
4.531854
 30
0.0
  0
VERTEX
  5
11B0
100
AcDbEntity
  8
ALPHA
100
AcDbVertex
100
AcDb2dVertex
 10
199.48603
 20
4.326051
 30
0.0
  0
VERTEX
  5
11B1
100
AcDbEntity
  8
ALPHA
100
AcDbVertex
100
AcDb2dVertex
 10
199.495868
 20
4.113785
 30
0.0
  0
VERTEX
  5
11B2
100
AcDbEntity
  8
ALPHA
100
AcDbVertex
100
AcDb2dVertex
 10
199.49862
 20
1.032483
 30
0.0
  0
VERTEX
  5
11B3
100
AcDbEntity
  8
ALPHA
100
AcDbVertex
100
AcDb2dVertex
 10
201.374163
 20
-0.116091
 30
0.0
  0
VERTEX
  5
11B4
100
AcDbEntity
  8
ALPHA
100
AcDbVertex
100
AcDb2dVertex
 10
201.374163
 20
7.2316
 30
0.0
  0
VERTEX
  5
11B5
100
AcDbEntity
  8
ALPHA
100
AcDbVertex
100
AcDb2dVertex
 10
199.499325
 20
7.731839
 30
0.0
  0
VERTEX
  5
11B6
100
AcDbEntity
  8
ALPHA
100
AcDbVertex
100
AcDb2dVertex
 10
199.499325
 20
9.783735
 30
0.0
  0
SEQEND
  5
11B7
100
AcDbEntity
  8
ALPHA
  0
POLYLINE
  5
11B8
100
AcDbEntity
  8
ALPHA
100
AcDb2dPolyline
 66
     1
 10
0.0
 20
0.0
 30
0.0
  0
VERTEX
  5
11B9
100
AcDbEntity
  8
ALPHA
100
AcDbVertex
100
AcDb2dVertex
 10
222.774051
 20
9.783735
 30
0.0
  0
VERTEX
  5
11BA
100
AcDbEntity
  8
ALPHA
100
AcDbVertex
100
AcDb2dVertex
 10
222.774051
 20
7.731839
 30
0.0
  0
VERTEX
  5
11BB
100
AcDbEntity
  8
ALPHA
100
AcDbVertex
100
AcDb2dVertex
 10
220.897838
 20
7.2316
 30
0.0
  0
VERTEX
  5
11BC
100
AcDbEntity
  8
ALPHA
100
AcDbVertex
100
AcDb2dVertex
 10
220.897838
 20
-0.116091
 30
0.0
  0
VERTEX
  5
11BD
100
AcDbEntity
  8
ALPHA
100
AcDbVertex
100
AcDb2dVertex
 10
222.773345
 20
1.032483
 30
0.0
  0
VERTEX
  5
11BE
100
AcDbEntity
  8
ALPHA
100
AcDbVertex
100
AcDb2dVertex
 10
222.774721
 20
4.113785
 30
0.0
  0
VERTEX
  5
11BF
100
AcDbEntity
  8
ALPHA
100
AcDbVertex
100
AcDb2dVertex
 10
222.784414
 20
4.326051
 30
0.0
  0
VERTEX
  5
11C0
100
AcDbEntity
  8
ALPHA
100
AcDbVertex
100
AcDb2dVertex
 10
222.812859
 20
4.531854
 30
0.0
  0
VERTEX
  5
11C1
100
AcDbEntity
  8
ALPHA
100
AcDbVertex
100
AcDb2dVertex
 10
222.859109
 20
4.730195
 30
0.0
  0
VERTEX
  5
11C2
100
AcDbEntity
  8
ALPHA
100
AcDbVertex
100
AcDb2dVertex
 10
222.922214
 20
4.920077
 30
0.0
  0
VERTEX
  5
11C3
100
AcDbEntity
  8
ALPHA
100
AcDbVertex
100
AcDb2dVertex
 10
223.001225
 20
5.100502
 30
0.0
  0
VERTEX
  5
11C4
100
AcDbEntity
  8
ALPHA
100
AcDbVertex
100
AcDb2dVertex
 10
223.095195
 20
5.270472
 30
0.0
  0
VERTEX
  5
11C5
100
AcDbEntity
  8
ALPHA
100
AcDbVertex
100
AcDb2dVertex
 10
223.203173
 20
5.428989
 30
0.0
  0
VERTEX
  5
11C6
100
AcDbEntity
  8
ALPHA
100
AcDbVertex
100
AcDb2dVertex
 10
223.324212
 20
5.575057
 30
0.0
  0
VERTEX
  5
11C7
100
AcDbEntity
  8
ALPHA
100
AcDbVertex
100
AcDb2dVertex
 10
223.457363
 20
5.707676
 30
0.0
  0
VERTEX
  5
11C8
100
AcDbEntity
  8
ALPHA
100
AcDbVertex
100
AcDb2dVertex
 10
223.601677
 20
5.82585
 30
0.0
  0
VERTEX
  5
11C9
100
AcDbEntity
  8
ALPHA
100
AcDbVertex
100
AcDb2dVertex
 10
223.756205
 20
5.928581
 30
0.0
  0
VERTEX
  5
11CA
100
AcDbEntity
  8
ALPHA
100
AcDbVertex
100
AcDb2dVertex
 10
223.919998
 20
6.014871
 30
0.0
  0
VERTEX
  5
11CB
100
AcDbEntity
  8
ALPHA
100
AcDbVertex
100
AcDb2dVertex
 10
224.092109
 20
6.083722
 30
0.0
  0
VERTEX
  5
11CC
100
AcDbEntity
  8
ALPHA
100
AcDbVertex
100
AcDb2dVertex
 10
224.271587
 20
6.134136
 30
0.0
  0
VERTEX
  5
11CD
100
AcDbEntity
  8
ALPHA
100
AcDbVertex
100
AcDb2dVertex
 10
224.457485
 20
6.165117
 30
0.0
  0
VERTEX
  5
11CE
100
AcDbEntity
  8
ALPHA
100
AcDbVertex
100
AcDb2dVertex
 10
224.648853
 20
6.175665
 30
0.0
  0
VERTEX
  5
11CF
100
AcDbEntity
  8
ALPHA
100
AcDbVertex
100
AcDb2dVertex
 10
224.840187
 20
6.165117
 30
0.0
  0
VERTEX
  5
11D0
100
AcDbEntity
  8
ALPHA
100
AcDbVertex
100
AcDb2dVertex
 10
225.025989
 20
6.134136
 30
0.0
  0
VERTEX
  5
11D1
100
AcDbEntity
  8
ALPHA
100
AcDbVertex
100
AcDb2dVertex
 10
225.205321
 20
6.083722
 30
0.0
  0
VERTEX
  5
11D2
100
AcDbEntity
  8
ALPHA
100
AcDbVertex
100
AcDb2dVertex
 10
225.377244
 20
6.014871
 30
0.0
  0
VERTEX
  5
11D3
100
AcDbEntity
  8
ALPHA
100
AcDbVertex
100
AcDb2dVertex
 10
225.540821
 20
5.928581
 30
0.0
  0
VERTEX
  5
11D4
100
AcDbEntity
  8
ALPHA
100
AcDbVertex
100
AcDb2dVertex
 10
225.695112
 20
5.82585
 30
0.0
  0
VERTEX
  5
11D5
100
AcDbEntity
  8
ALPHA
100
AcDbVertex
100
AcDb2dVertex
 10
225.83918
 20
5.707676
 30
0.0
  0
VERTEX
  5
11D6
100
AcDbEntity
  8
ALPHA
100
AcDbVertex
100
AcDb2dVertex
 10
225.972087
 20
5.575056
 30
0.0
  0
VERTEX
  5
11D7
100
AcDbEntity
  8
ALPHA
100
AcDbVertex
100
AcDb2dVertex
 10
226.092894
 20
5.428989
 30
0.0
  0
VERTEX
  5
11D8
100
AcDbEntity
  8
ALPHA
100
AcDbVertex
100
AcDb2dVertex
 10
226.200663
 20
5.270471
 30
0.0
  0
VERTEX
  5
11D9
100
AcDbEntity
  8
ALPHA
100
AcDbVertex
100
AcDb2dVertex
 10
226.294456
 20
5.100501
 30
0.0
  0
VERTEX
  5
11DA
100
AcDbEntity
  8
ALPHA
100
AcDbVertex
100
AcDb2dVertex
 10
226.373334
 20
4.920076
 30
0.0
  0
VERTEX
  5
11DB
100
AcDbEntity
  8
ALPHA
100
AcDbVertex
100
AcDb2dVertex
 10
226.43636
 20
4.730195
 30
0.0
  0
VERTEX
  5
11DC
100
AcDbEntity
  8
ALPHA
100
AcDbVertex
100
AcDb2dVertex
 10
226.482595
 20
4.531854
 30
0.0
  0
VERTEX
  5
11DD
100
AcDbEntity
  8
ALPHA
100
AcDbVertex
100
AcDb2dVertex
 10
226.511101
 20
4.326051
 30
0.0
  0
VERTEX
  5
11DE
100
AcDbEntity
  8
ALPHA
100
AcDbVertex
100
AcDb2dVertex
 10
226.520939
 20
4.113785
 30
0.0
  0
VERTEX
  5
11DF
100
AcDbEntity
  8
ALPHA
100
AcDbVertex
100
AcDb2dVertex
 10
226.523691
 20
1.032483
 30
0.0
  0
VERTEX
  5
11E0
100
AcDbEntity
  8
ALPHA
100
AcDbVertex
100
AcDb2dVertex
 10
228.399199
 20
-0.116091
 30
0.0
  0
VERTEX
  5
11E1
100
AcDbEntity
  8
ALPHA
100
AcDbVertex
100
AcDb2dVertex
 10
228.399199
 20
7.2316
 30
0.0
  0
VERTEX
  5
11E2
100
AcDbEntity
  8
ALPHA
100
AcDbVertex
100
AcDb2dVertex
 10
226.524361
 20
7.731839
 30
0.0
  0
VERTEX
  5
11E3
100
AcDbEntity
  8
ALPHA
100
AcDbVertex
100
AcDb2dVertex
 10
226.524361
 20
9.783735
 30
0.0
  0
SEQEND
  5
11E4
100
AcDbEntity
  8
ALPHA
  0
POLYLINE
  5
11E5
100
AcDbEntity
  8
ALPHA
100
AcDb2dPolyline
 66
     1
 10
0.0
 20
0.0
 30
0.0
  0
VERTEX
  5
11E6
100
AcDbEntity
  8
ALPHA
100
AcDbVertex
100
AcDb2dVertex
 10
236.249174
 20
9.783735
 30
0.0
  0
VERTEX
  5
11E7
100
AcDbEntity
  8
ALPHA
100
AcDbVertex
100
AcDb2dVertex
 10
236.249174
 20
7.731839
 30
0.0
  0
VERTEX
  5
11E8
100
AcDbEntity
  8
ALPHA
100
AcDbVertex
100
AcDb2dVertex
 10
234.372996
 20
7.2316
 30
0.0
  0
VERTEX
  5
11E9
100
AcDbEntity
  8
ALPHA
100
AcDbVertex
100
AcDb2dVertex
 10
234.372996
 20
-0.116091
 30
0.0
  0
VERTEX
  5
11EA
100
AcDbEntity
  8
ALPHA
100
AcDbVertex
100
AcDb2dVertex
 10
236.248504
 20
1.032483
 30
0.0
  0
VERTEX
  5
11EB
100
AcDbEntity
  8
ALPHA
100
AcDbVertex
100
AcDb2dVertex
 10
236.24988
 20
4.113785
 30
0.0
  0
VERTEX
  5
11EC
100
AcDbEntity
  8
ALPHA
100
AcDbVertex
100
AcDb2dVertex
 10
236.259573
 20
4.326051
 30
0.0
  0
VERTEX
  5
11ED
100
AcDbEntity
  8
ALPHA
100
AcDbVertex
100
AcDb2dVertex
 10
236.288018
 20
4.531854
 30
0.0
  0
VERTEX
  5
11EE
100
AcDbEntity
  8
ALPHA
100
AcDbVertex
100
AcDb2dVertex
 10
236.334268
 20
4.730195
 30
0.0
  0
VERTEX
  5
11EF
100
AcDbEntity
  8
ALPHA
100
AcDbVertex
100
AcDb2dVertex
 10
236.397372
 20
4.920077
 30
0.0
  0
VERTEX
  5
11F0
100
AcDbEntity
  8
ALPHA
100
AcDbVertex
100
AcDb2dVertex
 10
236.476384
 20
5.100502
 30
0.0
  0
VERTEX
  5
11F1
100
AcDbEntity
  8
ALPHA
100
AcDbVertex
100
AcDb2dVertex
 10
236.570353
 20
5.270472
 30
0.0
  0
VERTEX
  5
11F2
100
AcDbEntity
  8
ALPHA
100
AcDbVertex
100
AcDb2dVertex
 10
236.678332
 20
5.428989
 30
0.0
  0
VERTEX
  5
11F3
100
AcDbEntity
  8
ALPHA
100
AcDbVertex
100
AcDb2dVertex
 10
236.799371
 20
5.575057
 30
0.0
  0
VERTEX
  5
11F4
100
AcDbEntity
  8
ALPHA
100
AcDbVertex
100
AcDb2dVertex
 10
236.932522
 20
5.707676
 30
0.0
  0
VERTEX
  5
11F5
100
AcDbEntity
  8
ALPHA
100
AcDbVertex
100
AcDb2dVertex
 10
237.076835
 20
5.82585
 30
0.0
  0
VERTEX
  5
11F6
100
AcDbEntity
  8
ALPHA
100
AcDbVertex
100
AcDb2dVertex
 10
237.231363
 20
5.928581
 30
0.0
  0
VERTEX
  5
11F7
100
AcDbEntity
  8
ALPHA
100
AcDbVertex
100
AcDb2dVertex
 10
237.395157
 20
6.014871
 30
0.0
  0
VERTEX
  5
11F8
100
AcDbEntity
  8
ALPHA
100
AcDbVertex
100
AcDb2dVertex
 10
237.567267
 20
6.083722
 30
0.0
  0
VERTEX
  5
11F9
100
AcDbEntity
  8
ALPHA
100
AcDbVertex
100
AcDb2dVertex
 10
237.746746
 20
6.134136
 30
0.0
  0
VERTEX
  5
11FA
100
AcDbEntity
  8
ALPHA
100
AcDbVertex
100
AcDb2dVertex
 10
237.932643
 20
6.165117
 30
0.0
  0
VERTEX
  5
11FB
100
AcDbEntity
  8
ALPHA
100
AcDbVertex
100
AcDb2dVertex
 10
238.124012
 20
6.175665
 30
0.0
  0
VERTEX
  5
11FC
100
AcDbEntity
  8
ALPHA
100
AcDbVertex
100
AcDb2dVertex
 10
238.315345
 20
6.165117
 30
0.0
  0
VERTEX
  5
11FD
100
AcDbEntity
  8
ALPHA
100
AcDbVertex
100
AcDb2dVertex
 10
238.501146
 20
6.134136
 30
0.0
  0
VERTEX
  5
11FE
100
AcDbEntity
  8
ALPHA
100
AcDbVertex
100
AcDb2dVertex
 10
238.680475
 20
6.083722
 30
0.0
  0
VERTEX
  5
11FF
100
AcDbEntity
  8
ALPHA
100
AcDbVertex
100
AcDb2dVertex
 10
238.852396
 20
6.014871
 30
0.0
  0
VERTEX
  5
1200
100
AcDbEntity
  8
ALPHA
100
AcDbVertex
100
AcDb2dVertex
 10
239.015968
 20
5.928581
 30
0.0
  0
VERTEX
  5
1201
100
AcDbEntity
  8
ALPHA
100
AcDbVertex
100
AcDb2dVertex
 10
239.170256
 20
5.82585
 30
0.0
  0
VERTEX
  5
1202
100
AcDbEntity
  8
ALPHA
100
AcDbVertex
100
AcDb2dVertex
 10
239.31432
 20
5.707676
 30
0.0
  0
VERTEX
  5
1203
100
AcDbEntity
  8
ALPHA
100
AcDbVertex
100
AcDb2dVertex
 10
239.447223
 20
5.575056
 30
0.0
  0
VERTEX
  5
1204
100
AcDbEntity
  8
ALPHA
100
AcDbVertex
100
AcDb2dVertex
 10
239.568026
 20
5.428989
 30
0.0
  0
VERTEX
  5
1205
100
AcDbEntity
  8
ALPHA
100
AcDbVertex
100
AcDb2dVertex
 10
239.675791
 20
5.270471
 30
0.0
  0
VERTEX
  5
1206
100
AcDbEntity
  8
ALPHA
100
AcDbVertex
100
AcDb2dVertex
 10
239.769581
 20
5.100501
 30
0.0
  0
VERTEX
  5
1207
100
AcDbEntity
  8
ALPHA
100
AcDbVertex
100
AcDb2dVertex
 10
239.848457
 20
4.920076
 30
0.0
  0
VERTEX
  5
1208
100
AcDbEntity
  8
ALPHA
100
AcDbVertex
100
AcDb2dVertex
 10
239.911481
 20
4.730195
 30
0.0
  0
VERTEX
  5
1209
100
AcDbEntity
  8
ALPHA
100
AcDbVertex
100
AcDb2dVertex
 10
239.957716
 20
4.531854
 30
0.0
  0
VERTEX
  5
120A
100
AcDbEntity
  8
ALPHA
100
AcDbVertex
100
AcDb2dVertex
 10
239.986222
 20
4.326051
 30
0.0
  0
VERTEX
  5
120B
100
AcDbEntity
  8
ALPHA
100
AcDbVertex
100
AcDb2dVertex
 10
239.996062
 20
4.113785
 30
0.0
  0
VERTEX
  5
120C
100
AcDbEntity
  8
ALPHA
100
AcDbVertex
100
AcDb2dVertex
 10
239.998849
 20
1.032483
 30
0.0
  0
VERTEX
  5
120D
100
AcDbEntity
  8
ALPHA
100
AcDbVertex
100
AcDb2dVertex
 10
241.874357
 20
-0.116091
 30
0.0
  0
VERTEX
  5
120E
100
AcDbEntity
  8
ALPHA
100
AcDbVertex
100
AcDb2dVertex
 10
241.874357
 20
7.2316
 30
0.0
  0
VERTEX
  5
120F
100
AcDbEntity
  8
ALPHA
100
AcDbVertex
100
AcDb2dVertex
 10
239.99952
 20
7.731839
 30
0.0
  0
VERTEX
  5
1210
100
AcDbEntity
  8
ALPHA
100
AcDbVertex
100
AcDb2dVertex
 10
239.99952
 20
9.783735
 30
0.0
  0
SEQEND
  5
1211
100
AcDbEntity
  8
ALPHA
  0
POLYLINE
  5
1212
100
AcDbEntity
  8
ALPHA
100
AcDb2dPolyline
 66
     1
 10
0.0
 20
0.0
 30
0.0
  0
VERTEX
  5
1213
100
AcDbEntity
  8
ALPHA
100
AcDbVertex
100
AcDb2dVertex
 10
249.749133
 20
9.783735
 30
0.0
  0
VERTEX
  5
1214
100
AcDbEntity
  8
ALPHA
100
AcDbVertex
100
AcDb2dVertex
 10
249.749133
 20
7.731839
 30
0.0
  0
VERTEX
  5
1215
100
AcDbEntity
  8
ALPHA
100
AcDbVertex
100
AcDb2dVertex
 10
247.872955
 20
7.2316
 30
0.0
  0
VERTEX
  5
1216
100
AcDbEntity
  8
ALPHA
100
AcDbVertex
100
AcDb2dVertex
 10
247.872955
 20
-0.116091
 30
0.0
  0
VERTEX
  5
1217
100
AcDbEntity
  8
ALPHA
100
AcDbVertex
100
AcDb2dVertex
 10
249.748463
 20
1.032483
 30
0.0
  0
VERTEX
  5
1218
100
AcDbEntity
  8
ALPHA
100
AcDbVertex
100
AcDb2dVertex
 10
249.749839
 20
4.113785
 30
0.0
  0
VERTEX
  5
1219
100
AcDbEntity
  8
ALPHA
100
AcDbVertex
100
AcDb2dVertex
 10
249.759531
 20
4.326051
 30
0.0
  0
VERTEX
  5
121A
100
AcDbEntity
  8
ALPHA
100
AcDbVertex
100
AcDb2dVertex
 10
249.787977
 20
4.531854
 30
0.0
  0
VERTEX
  5
121B
100
AcDbEntity
  8
ALPHA
100
AcDbVertex
100
AcDb2dVertex
 10
249.834226
 20
4.730195
 30
0.0
  0
VERTEX
  5
121C
100
AcDbEntity
  8
ALPHA
100
AcDbVertex
100
AcDb2dVertex
 10
249.897331
 20
4.920077
 30
0.0
  0
VERTEX
  5
121D
100
AcDbEntity
  8
ALPHA
100
AcDbVertex
100
AcDb2dVertex
 10
249.976343
 20
5.100502
 30
0.0
  0
VERTEX
  5
121E
100
AcDbEntity
  8
ALPHA
100
AcDbVertex
100
AcDb2dVertex
 10
250.070312
 20
5.270472
 30
0.0
  0
VERTEX
  5
121F
100
AcDbEntity
  8
ALPHA
100
AcDbVertex
100
AcDb2dVertex
 10
250.178291
 20
5.428989
 30
0.0
  0
VERTEX
  5
1220
100
AcDbEntity
  8
ALPHA
100
AcDbVertex
100
AcDb2dVertex
 10
250.29933
 20
5.575057
 30
0.0
  0
VERTEX
  5
1221
100
AcDbEntity
  8
ALPHA
100
AcDbVertex
100
AcDb2dVertex
 10
250.432481
 20
5.707676
 30
0.0
  0
VERTEX
  5
1222
100
AcDbEntity
  8
ALPHA
100
AcDbVertex
100
AcDb2dVertex
 10
250.576794
 20
5.82585
 30
0.0
  0
VERTEX
  5
1223
100
AcDbEntity
  8
ALPHA
100
AcDbVertex
100
AcDb2dVertex
 10
250.731322
 20
5.928581
 30
0.0
  0
VERTEX
  5
1224
100
AcDbEntity
  8
ALPHA
100
AcDbVertex
100
AcDb2dVertex
 10
250.895116
 20
6.014871
 30
0.0
  0
VERTEX
  5
1225
100
AcDbEntity
  8
ALPHA
100
AcDbVertex
100
AcDb2dVertex
 10
251.067226
 20
6.083722
 30
0.0
  0
VERTEX
  5
1226
100
AcDbEntity
  8
ALPHA
100
AcDbVertex
100
AcDb2dVertex
 10
251.246705
 20
6.134136
 30
0.0
  0
VERTEX
  5
1227
100
AcDbEntity
  8
ALPHA
100
AcDbVertex
100
AcDb2dVertex
 10
251.432602
 20
6.165117
 30
0.0
  0
VERTEX
  5
1228
100
AcDbEntity
  8
ALPHA
100
AcDbVertex
100
AcDb2dVertex
 10
251.623971
 20
6.175665
 30
0.0
  0
VERTEX
  5
1229
100
AcDbEntity
  8
ALPHA
100
AcDbVertex
100
AcDb2dVertex
 10
251.815305
 20
6.165117
 30
0.0
  0
VERTEX
  5
122A
100
AcDbEntity
  8
ALPHA
100
AcDbVertex
100
AcDb2dVertex
 10
252.001105
 20
6.134136
 30
0.0
  0
VERTEX
  5
122B
100
AcDbEntity
  8
ALPHA
100
AcDbVertex
100
AcDb2dVertex
 10
252.180435
 20
6.083722
 30
0.0
  0
VERTEX
  5
122C
100
AcDbEntity
  8
ALPHA
100
AcDbVertex
100
AcDb2dVertex
 10
252.352356
 20
6.014871
 30
0.0
  0
VERTEX
  5
122D
100
AcDbEntity
  8
ALPHA
100
AcDbVertex
100
AcDb2dVertex
 10
252.51593
 20
5.928581
 30
0.0
  0
VERTEX
  5
122E
100
AcDbEntity
  8
ALPHA
100
AcDbVertex
100
AcDb2dVertex
 10
252.670218
 20
5.82585
 30
0.0
  0
VERTEX
  5
122F
100
AcDbEntity
  8
ALPHA
100
AcDbVertex
100
AcDb2dVertex
 10
252.814283
 20
5.707676
 30
0.0
  0
VERTEX
  5
1230
100
AcDbEntity
  8
ALPHA
100
AcDbVertex
100
AcDb2dVertex
 10
252.947187
 20
5.575056
 30
0.0
  0
VERTEX
  5
1231
100
AcDbEntity
  8
ALPHA
100
AcDbVertex
100
AcDb2dVertex
 10
253.06799
 20
5.428989
 30
0.0
  0
VERTEX
  5
1232
100
AcDbEntity
  8
ALPHA
100
AcDbVertex
100
AcDb2dVertex
 10
253.175756
 20
5.270471
 30
0.0
  0
VERTEX
  5
1233
100
AcDbEntity
  8
ALPHA
100
AcDbVertex
100
AcDb2dVertex
 10
253.269546
 20
5.100501
 30
0.0
  0
VERTEX
  5
1234
100
AcDbEntity
  8
ALPHA
100
AcDbVertex
100
AcDb2dVertex
 10
253.348422
 20
4.920076
 30
0.0
  0
VERTEX
  5
1235
100
AcDbEntity
  8
ALPHA
100
AcDbVertex
100
AcDb2dVertex
 10
253.411445
 20
4.730195
 30
0.0
  0
VERTEX
  5
1236
100
AcDbEntity
  8
ALPHA
100
AcDbVertex
100
AcDb2dVertex
 10
253.457678
 20
4.531854
 30
0.0
  0
VERTEX
  5
1237
100
AcDbEntity
  8
ALPHA
100
AcDbVertex
100
AcDb2dVertex
 10
253.486183
 20
4.326051
 30
0.0
  0
VERTEX
  5
1238
100
AcDbEntity
  8
ALPHA
100
AcDbVertex
100
AcDb2dVertex
 10
253.496021
 20
4.113785
 30
0.0
  0
VERTEX
  5
1239
100
AcDbEntity
  8
ALPHA
100
AcDbVertex
100
AcDb2dVertex
 10
253.498773
 20
1.032483
 30
0.0
  0
VERTEX
  5
123A
100
AcDbEntity
  8
ALPHA
100
AcDbVertex
100
AcDb2dVertex
 10
255.374281
 20
-0.116091
 30
0.0
  0
VERTEX
  5
123B
100
AcDbEntity
  8
ALPHA
100
AcDbVertex
100
AcDb2dVertex
 10
255.374281
 20
7.2316
 30
0.0
  0
VERTEX
  5
123C
100
AcDbEntity
  8
ALPHA
100
AcDbVertex
100
AcDb2dVertex
 10
253.499479
 20
7.731839
 30
0.0
  0
VERTEX
  5
123D
100
AcDbEntity
  8
ALPHA
100
AcDbVertex
100
AcDb2dVertex
 10
253.499479
 20
9.783735
 30
0.0
  0
SEQEND
  5
123E
100
AcDbEntity
  8
ALPHA
  0
LINE
  5
136B
100
AcDbEntity
  8
AXE
100
AcDbLine
 10
22.123435
 20
16.257581
 30
0.0
 11
22.123435
 21
-2.387557
 31
0.0
  0
LINE
  5
1399
100
AcDbEntity
  8
AXE
100
AcDbLine
 10
76.123235
 20
16.257581
 30
0.0
 11
76.123235
 21
-2.387557
 31
0.0
  0
LINE
  5
13C7
100
AcDbEntity
  8
AXE
100
AcDbLine
 10
130.123388
 20
16.257581
 30
0.0
 11
130.123388
 21
-2.387557
 31
0.0
  0
LINE
  5
13F5
100
AcDbEntity
  8
AXE
100
AcDbLine
 10
184.123541
 20
16.257581
 30
0.0
 11
184.123541
 21
-2.387557
 31
0.0
  0
LINE
  5
1423
100
AcDbEntity
  8
AXE
100
AcDbLine
 10
238.123694
 20
16.257581
 30
0.0
 11
238.123694
 21
-2.387557
 31
0.0
  0
DIMENSION
  5
1430
100
AcDbEntity
  8
COTATION1
100
AcDbDimension
  2
*D7
 10
76.123235
 20
-7.290697
 30
0.0
 11
49.123335
 21
-5.040697
 31
0.0
 70
    32
  3
SC_STAND
100
AcDbAlignedDimension
 13
22.123435
 23
-2.387557
 33
0.0
 14
76.123235
 24
-2.387557
 34
0.0
100
AcDbRotatedDimension
  0
DIMENSION
  5
143D
100
AcDbEntity
  8
COTATION1
100
AcDbDimension
  2
*D8
 10
130.123388
 20
-7.290697
 30
0.0
 11
103.123312
 21
-5.040697
 31
0.0
 70
    32
  3
SC_STAND
100
AcDbAlignedDimension
 13
76.123235
 23
-2.450057
 33
0.0
 14
130.123388
 24
-2.450057
 34
0.0
100
AcDbRotatedDimension
  0
DIMENSION
  5
144A
100
AcDbEntity
  8
COTATION1
100
AcDbDimension
  2
*D9
 10
184.123541
 20
-7.290697
 30
0.0
 11
157.123465
 21
-5.040697
 31
0.0
 70
    32
  3
SC_STAND
100
AcDbAlignedDimension
 13
130.123388
 23
-2.512557
 33
0.0
 14
184.123541
 24
-2.387557
 34
0.0
100
AcDbRotatedDimension
  0
DIMENSION
  5
1457
100
AcDbEntity
  8
COTATION1
100
AcDbDimension
  2
*D10
 10
238.123694
 20
-7.290697
 30
0.0
 11
211.123618
 21
-5.040697
 31
0.0
 70
    32
  3
SC_STAND
100
AcDbAlignedDimension
 13
184.123541
 23
-2.450057
 33
0.0
 14
238.123694
 24
-2.450057
 34
0.0
100
AcDbRotatedDimension
  0
DIMENSION
  5
1485
100
AcDbEntity
  8
COTATION1
100
AcDbDimension
  2
*D11
 10
260.136781
 20
33.572229
 30
0.0
 11
130.136635
 21
35.822229
 31
0.0
 70
    32
  3
SC_STAND
100
AcDbAlignedDimension
 13
0.136489
 23
24.983207
 33
0.0
 14
260.136781
 24
24.983207
 34
0.0
100
AcDbRotatedDimension
  0
ENDSEC
  0
SECTION
  2
OBJECTS
  0
DICTIONARY
  5
F8
100
AcDbDictionary
  3
ACAD_GROUP
350
F9
  3
ACAD_MLINESTYLE
350
106
  3
ACDBVARIABLEDICTIONARY
350
143
  0
DICTIONARY
  5
F9
102
{ACAD_REACTORS
330
F8
102
}
100
AcDbDictionary
  0
DICTIONARY
  5
106
102
{ACAD_REACTORS
330
F8
102
}
100
AcDbDictionary
  3
STANDARD
350
107
  0
DICTIONARY
  5
143
102
{ACAD_REACTORS
330
F8
102
}
100
AcDbDictionary
  3
DIMADEC
350
144
  0
MLINESTYLE
  5
107
102
{ACAD_REACTORS
330
106
102
}
100
AcDbMlineStyle
  2
STANDARD
 70
     0
  3

 62
   256
 51
90.0
 52
90.0
 71
     2
 49
0.5
 62
   256
  6
BYLAYER
 49
-0.5
 62
   256
  6
BYLAYER
  0
DICTIONARYVAR
  5
144
102
{ACAD_REACTORS
330
143
102
}
100
DictionaryVariables
280
     0
  1
0
  0
ENDSEC
  0
EOF
